Небеса 2 / Рай 2 / Jannat 2 (Кунал Дешмукх / Kunal Deshmukh) [2012 г., Триллер, драма, криминал, HQRip] MVO [Red Media]

Ответить на тему
 
Автор
Сообщение

jons3 ®

Стаж: 2 года 3 месяца

Сообщений: 157

Репутация: 66 [+] [-]

Пост 20-Окт-2014 19:45

[Цитировать] 

Небеса 2 / Рай 2 / Jannat 2Год выпуска: 2012
Страна: Индия
Жанр: Триллер, драма, криминал
Продолжительность: 02:24:01
Перевод: Профессиональный (многоголосый, закадровый) [Red Media]
Режиссер: Кунал Дешмукх / Kunal Deshmukh
В ролях: Эмран Хашми, Эша Гупта, Рандип Худа, Маниш Чоудхари, Мохаммед Зишан Аюб
Описание: В таком мегаполисе, как Дели, нашлось место всем: и суровому помощнику комиссара Пратапу Рагхуванши, и мелким торговцам оружием Сону-Делийцу и Балли, и главе преступного синдиката Мангал Сингху Томару. Но рано или поздно их пути должны были пересечься. И вот уже Сону — доверенный человек Мангал Сингха… и информатор Пратапа. Но двойная игра — это игра со смертью, а любовь к Джанви сделала его непривычно уязвимым. Обретет ли Сону-Делиец рай на земле или отправится за ним на небеса?

Тип релиза: HQRip
Контейнер: AVI
Видео кодек: XviD
Аудио кодек: AC3 (Dolby Digital)
Видео: XviD build 50, 720x304 (2.37:1), 24 fps, 1354 kbps avg
Аудио: AC3 Dolby Digital, 48 kHz, 2/0 (L,R) ch, 192 kbps

Скриншоты

MediaInfo

General
Complete name : D:\Nebesa.2.2012.XviD.HDRip-Dego.avi
Format : AVI
Format/Info : Audio Video Interleave
File size : 1.46 GiB
Duration : 2h 14mn
Overall bit rate : 1 556 Kbps
Writing application : VirtualDubMod 1.5.10.2 (build 2540/release)
Writing library : VirtualDubMod build 2540/release
Video
ID : 0
Format : MPEG-4 Visual
Format profile : AdvancedSimple@L5
Format settings, BVOP : Yes
Format settings, QPel : No
Format settings, GMC : No warppoints
Format settings, Matrix : Custom
Codec ID : XVID
Codec ID/Hint : XviD
Duration : 2h 14mn
Bit rate : 1 355 Kbps
Width : 720 pixels
Height : 304 pixels
Display aspect ratio : 2.35
Frame rate : 24.000 fps
Resolution : 24 bits
Colorimetry : 4:2:0
Scan type : Progressive
Bits/(Pixel*Frame) : 0.258
Stream size : 1.27 GiB (87%)
Writing library : XviD 1.2.1 (UTC 2008-12-04)
Audio
ID : 1
Format : AC-3
Format/Info : Audio Coding 3
Codec ID : 2000
Duration : 2h 14mn
Bit rate mode : Constant
Bit rate : 192 Kbps
Channel(s) : 2 channels
Channel positions : L R
Sampling rate : 48.0 KHz
Stream size : 185 MiB (12%)
Alignment : Split accross interleaves
Interleave, duration : 42 ms (1.00 video frame)
Interleave, preload duration : 500 ms
[Торрент-статистика]
[Профиль]  [ЛС] 
Показать сообщения:    
Ответить на тему

Текущее время: Сегодня 22:06

Часовой пояс: GMT + 4



Вы не можете начинать темы
Вы не можете отвечать на сообщения
Вы не можете редактировать свои сообщения
Вы не можете удалять свои сообщения
Вы не можете голосовать в опросах
Вы не можете прикреплять файлы к сообщениям
Вы не можете скачивать файлы