Полицейский на подиуме / Детектив Чха: миссия «Подиум» / Runway Cop (Шин Тэ-Ра / Shin Tae-Ra) [2012, Южная Корея, комедия, HDRip]

Ответить на тему
 
Автор
Сообщение

ArtZak ®

Пол:

Стаж: 5 лет 1 месяц

Сообщений: 3008

Репутация: 1363 [+] [-]

Откуда: Россия

Пост 02-Сен-2012 13:08

[Цитировать] 

ПОЛИЦЕЙСКИЙ НА ПОДИУМЕ
Детектив Чха: миссия «Подиум» / Runway Cop

Страна: Южная Корея
Жанр: комедия
Год выпуска: 2012
Продолжительность: 01:50:35-Перевод: Любительский (двухголосый закадровый) pandora2177, loster01
Сэмпл: http://multi-up.com/754320-Cубтитры: нет
Режиссер: Шин Тэ-Ра / Shin Tae-Ra
В ролях:
Кан Чжи Хван - детектив Ча Чул-Су
Сон Ю Ри - модельер Юн Джэ
Ли Су Хёк - топ модель Ким Сун Хо
Ким Ён Хван - Хан Сын У-Описание: Детектив Ча удивляет всех своим вешним видом, он больше похож на нищего, чем на полицейского. Но, несмотря на все это, он очень преданный своему делу коп. И когда ему, чтобы поймать "плохих парней", придется работать под прикрытием в качестве модели, ходить по подиуму, то он готов ради дела сбросить за 2 недели 20 килограммов.-Доп. информация:
Перевод: elzanorge
Оформление постера: pandora2177
Тайминг: RiN
Релиз: совместный релиз групп "GREEN TEA" и "ANIPOWER" -Качество видео: HDRip
Формат видео: AVI
Видео: XviD, 720x304 (2.37:1), 25 fps, 1656 kbps avg, 0.30 bit/pixel
Аудио: Русский, 48 KHz, MPEG Layer 3, 2 ch, 192.00 kbps

MediaInfo

Формат : AVI
Формат/Информация : Audio Video Interleave
Размер файла : 1,44 Гбайт
Продолжительность : 1 ч. 50 м.
Общий поток : 1858 Кбит/сек
Программа кодирования : VirtualDubMod 1.5.10.2 (build 2540/release)
Библиотека кодирования : VirtualDub build 32842/release
Видео
Идентификатор : 0
Формат : MPEG-4 Visual
Профиль формата : Advanced Simple@L5
Параметр BVOP формата : Нет
Параметр QPel формата : Нет
Параметр GMC формата : Без точки перехода
Параметр матрицы формата : Выборочная
Идентификатор кодека : XVID
Идентификатор кодека/Подсказка : XviD
Продолжительность : 1 ч. 50 м.
Битрейт : 1656 Кбит/сек
Ширина : 720 пикселей
Высота : 304 пикселя
Соотношение сторон : 2,35:1
Частота кадров : 25,000 кадров/сек
Цветовое пространство : YUV
Субдискретизация насыщенности : 4:2:0
Битовая глубина : 8 бит
Тип развёртки : Прогрессивная
Метод сжатия : С потерями
Бит/(Пиксели*Кадры) : 0.303
Размер потока : 1,28 Гбайт (89%)
Библиотека кодирования : XviD 1.0.2 (UTC 2004-08-29)
Аудио
Идентификатор : 1
Формат : MPEG Audio
Версия формата : Version 1
Профиль формата : Layer 3
Режим : Joint stereo
Идентификатор кодека : 55
Идентификатор кодека/Подсказка : MP3
Продолжительность : 1 ч. 50 м.
Вид битрейта : Постоянный
Битрейт : 192 Кбит/сек
Каналы : 2 канала
Частота : 48,0 КГц
Метод сжатия : С потерями
Размер потока : 152 Мбайт (10%)
Выравнивание : Разделение по промежуткам
Продолжительность промежутка : 40 мс. (1,00 видеокадр)
Время предзагрузки промежутка : 500 мс.

Скриншот c названием фильма

Скриншоты







[Торрент-статистика]
[Профиль]  [ЛС] 
Показать сообщения:    
Ответить на тему

Текущее время: Сегодня 00:19

Часовой пояс: GMT + 4



Вы не можете начинать темы
Вы не можете отвечать на сообщения
Вы не можете редактировать свои сообщения
Вы не можете удалять свои сообщения
Вы не можете голосовать в опросах
Вы не можете прикреплять файлы к сообщениям
Вы не можете скачивать файлы