Беззащитный солдат / Naked soldier (Марко Мак / Marco Mak) [2012, Гонконг, криминал, боевик, HDRip]

Ответить на тему
 
Автор
Сообщение

ArtZak ®

Пол:

Стаж: 5 лет 1 месяц

Сообщений: 3008

Репутация: 1363 [+] [-]

Откуда: Россия

Пост 02-Сен-2012 04:30

[Цитировать] 

Беззащитный солдат / Naked soldier Страна: Гонконг
Жанр: боевик
Год выпуска: 2012
Продолжительность: 01:29:10-Перевод: одноголосый закадровый den904
Перевод на русский: Skyworker
Cубтитры: китайские (не отключаемые)
Режиссер: Марко Мак / Marco Mak
В ролях: Саммо Хунг, Энтони Вонг, Женнифер Тсе, Филип НГ, Энки Билке, Энди Он, Лена Лин, Цзянь, Луи Ксиа, Йен Пауэрс, Тимми Хунг-Описание: Пятнадцать лет назад Агент Интерпола Лонг сорвал сделку по продаже наркотиков стоимостью 1 миллиард долларов. Спустя некоторое время организация нанимает убийц, чтобы убить всю семью Лонга, чтобы отомстить за сорванную сделку. Лонг выживает, и считает, что его юная дочь до сих пор жива....-РЕЛИЗ ГРУППЫ - -Качество видео: HDRip (исходник неизвестен)
Формат видео: AVI
Видео: XviD, 720x304 (2.37:1), 25 fps, 1939 kbps avg, 0.35 bit/pixel
Аудио: Русский, 48 KHz, MPEG Layer 3, 2 ch, 224.00 kbps-

MediaInfo

Format : AVI
Format/Info : Audio Video Interleave
File size : 1.37 GiB
Duration : 1h 30mn
Overall bit rate : 2 173 Kbps
Writing application : VirtualDubMod 1.5.10.2 (build 2540/release)
Writing library : VirtualDubMod build 2540/release
Video
ID : 0
Format : MPEG-4 Visual
Format profile : Advanced Simple@L5
Format settings, BVOP : 1
Format settings, QPel : No
Format settings, GMC : No warppoints
Format settings, Matrix : Custom
Codec ID : XVID
Codec ID/Hint : XviD
Duration : 1h 30mn
Bit rate : 1 939 Kbps
Width : 720 pixels
Height : 304 pixels
Display aspect ratio : 2.35:1
Frame rate : 25.000 fps
Color space : YUV
Chroma subsampling : 4:2:0
Bit depth : 8 bits
Scan type : Progressive
Compression mode : Lossy
Bits/(Pixel*Frame) : 0.354
Stream size : 1.22 GiB (89%)
Writing library : XviD 1.0.2 (UTC 2004-08-29)
Audio
ID : 1
Format : MPEG Audio
Format version : Version 1
Format profile : Layer 3
Mode : Joint stereo
Codec ID : 55
Codec ID/Hint : MP3
Duration : 1h 30mn
Bit rate mode : Constant
Bit rate : 224 Kbps
Channel(s) : 2 channels
Sampling rate : 48.0 KHz
Compression mode : Lossy
Stream size : 144 MiB (10%)
Alignment : Aligned on interleaves
Interleave, duration : 40 ms (1.00 video frame)
Interleave, preload duration : 504 ms

Скриншоты






[Торрент-статистика]
[Профиль]  [ЛС] 
Показать сообщения:    
Ответить на тему

Текущее время: Сегодня 22:07

Часовой пояс: GMT + 4



Вы не можете начинать темы
Вы не можете отвечать на сообщения
Вы не можете редактировать свои сообщения
Вы не можете удалять свои сообщения
Вы не можете голосовать в опросах
Вы не можете прикреплять файлы к сообщениям
Вы не можете скачивать файлы