Человек, который плакал / Crying Man / U-neun nam-ja (Ли Чжон Бом / Lee Jeong Beom) [2014 г., драма, боевик, HDTVRip] DVO [GREEN TEA]

Ответить на тему
 
Автор
Сообщение

ArtZak ®

Пол:

Стаж: 5 лет 1 месяц

Сообщений: 3008

Репутация: 1363 [+] [-]

Откуда: Россия

Пост 10-Авг-2014 00:21

[Цитировать] 

Человек, который плакал / Crying Man / U-neun nam-ja- Год выпуска: 2014
Страна: Корея Южная
Жанр: драма, боевик
Продолжительность: 01:56:12
Перевод: Любительский (двухголосый) [GREEN TEA]
Роли озвучивали: Ольга Гринтиева и Константин Романов
Русские субтитры: Нет
Режиссер: Ли Чжон Бом / Lee Jeong Beom- -В ролях:
Дон Гон Чан, Мин Хи Ким, Брайан Ти, Дженнифер Баттелл, Алессандро Куомо, Хи Вон Ким, Хан На Кан, Сон Ук Мин, Чжун Сон Ким, Ё Хан Бён, Энтони Дилио, Дэна Ли, Рич Тинг, Александр Рэйт и др.
Описание:
Бросив свою мать, Кон эмигрировал в Америку, чтобы стать наемным убийцей. Однажды, во время выполнения очередного заказного убийства, Кон случайно убивает молодую девчушку и страдает от чувства вины за убийство невинного ребенка. Его босс дает киллеру новое задание — убить мать девочки. Новая цель Кона — Мо Кён работает менеджером в инвестиционной компании. Убитая горем мать хоронит себя в своей работе, не зная, что находится в самом центре опасного заговора. И тогда, она встречает человека, который хочет рассказать ей правду о смерти ее ребенка. Кон решил для себя, что он не позволит своим работодателям убить Мо Кён…
Качество: HDTVRip
Формат: AVI
Видео кодек: XviD
Аудио кодек: MP3 (MPEG1 Layer 3)
Видео: MPEG4, XviD, 720x304 (2.35:1), 23.976 fps, 1 593 Kbps (0.304 bit/pixel)
Аудио: MP3, 48.0 KHz, 2 ch, 192 Kbps, CBR

Скриншоты

MI

Код:
General
Complete name                            : D:\downloads\No.Tears.for.the.Dead.2014.HDTVRip.avi
Format                                   : AVI
Format/Info                              : Audio Video Interleave
File size                                : 1.46 GiB
Duration                                 : 1h 56mn
Overall bit rate                         : 1 795 Kbps
Writing application                      : VirtualDubMod 1.5.10.3 | www.virtualdub-fr.org || (build 2550/release)
Writing library                          : VirtualDubMod build 2550/release
Video
ID                                       : 0
Format                                   : MPEG-4 Visual
Format profile                           : Advanced Simple@L5
Format settings, BVOP                    : 2
Format settings, QPel                    : No
Format settings, GMC                     : No warppoints
Format settings, Matrix                  : Default (MPEG)
Codec ID                                 : XVID
Codec ID/Hint                            : XviD
Duration                                 : 1h 56mn
Bit rate                                 : 1 593 Kbps
Width                                    : 720 pixels
Height                                   : 304 pixels
Display aspect ratio                     : 2.35:1
Frame rate                               : 23.976 fps
Color space                              : YUV
Chroma subsampling                       : 4:2:0
Bit depth                                : 8 bits
Scan type                                : Progressive
Compression mode                         : Lossy
Bits/(Pixel*Frame)                       : 0.304
Stream size                              : 1.29 GiB (89%)
Writing library                          : XviD 1.2.1 (UTC 2008-12-04)
Audio
ID                                       : 1
Format                                   : MPEG Audio
Format version                           : Version 1
Format profile                           : Layer 3
Codec ID                                 : 55
Codec ID/Hint                            : MP3
Duration                                 : 1h 56mn
Bit rate mode                            : Constant
Bit rate                                 : 192 Kbps
Channel(s)                               : 2 channels
Sampling rate                            : 48.0 KHz
Compression mode                         : Lossy
Delay relative to video                  : 13ms
Stream size                              : 160 MiB (11%)
Alignment                                : Split accross interleaves
Interleave, duration                     : 42 ms (1.00 video frame)
Interleave, preload duration             : 500 ms
[Торрент-статистика]
[Профиль]  [ЛС] 
Показать сообщения:    
Ответить на тему

Текущее время: Сегодня 16:33

Часовой пояс: GMT + 4



Вы не можете начинать темы
Вы не можете отвечать на сообщения
Вы не можете редактировать свои сообщения
Вы не можете удалять свои сообщения
Вы не можете голосовать в опросах
Вы не можете прикреплять файлы к сообщениям
Вы не можете скачивать файлы