Знак смерти / (Dead Sign) (Лю Хуэй) [2013 г., Детектив, Драма, Триллер, WEB-DLRip-AVC] DVO [den904&DeadSno]

Ответить на тему
 
Автор
Сообщение

Online ®

Пол:

Стаж: 2 года 9 месяцев

Сообщений: 93

Репутация: 70 [+] [-]

Откуда: Inf Mq4

Пост 05-Мар-2014 21:32

[Цитировать] 

Знак смерти / (Dead Sign)
Год выпуска: 2013
Страна: Китай
Жанр: Ужасы, Детектив, Драма, Триллер
Продолжительность: 89 мин. / 01:29
Перевод: Любительский (двухголосый) [den904 & DeadSno]
Режиссер: Лю Хуэй
В ролях: Кайли ДэФер, Элизабет Рём, Кристиан Кэмпбелл, Тобиас Сигал
Описание: Покинувший давным-давно родительский дом, Кан Кай снова возвращается туда вместе со своими друзьями, чтобы найти пещеру с наскальной живописью, в которой он побывал в детстве. Но путь к пещере, расположенной вглубине гор, станет для всех них путешествием в собственные тайны, которые, как и обвал, внезапно обрушившийся, могут привести к гибели.
Тип релиза: WEB-DLRip-AVC
Контейнер: MKV
Видео кодек: XviD
Аудио кодек: AC3 (Dolby Digital)
Видео: WEB-DL 720p [CHD] 4935 kb/s, 1280x544
Аудио: Russian / Chinese: AC3, 192 kb/s (2 ch)

MediaInfo

Общее
Уникальный идентификатор : 175296949757242175047447988527306628874 (0x83E0F6E77CD8E5F89418CA0B8E4BDF0A)
Полное имя : C:\Users\Администратор\Downloads\Dead.Sign.2013.WEB-DL.720p.CINEMANIA.mkv
Формат : Matroska
Версия формата : Version 4 / Version 2
Размер файла : 3,33 Гбайт
Продолжительность : 1 ч. 29 м.
Общий поток : 5334 Кбит/сек
Название фильма : Release Group CINEMANIA
Дата кодирования : UTC 2014-02-23 16:28:33
Программа кодирования : mkvmerge v6.7.0 ('Back to the Ground') 64bit built on Jan 8 2014 15:10:52
Библиотека кодирования : libebml v1.3.0 + libmatroska v1.4.1
Видео
Идентификатор : 1
Формат : AVC
Формат/Информация : Advanced Video Codec
Профиль формата : High@L4.1
Параметр CABAC формата : Да
Параметр ReFrames формата : 9 кадров
Идентификатор кодека : V_MPEG4/ISO/AVC
Продолжительность : 1 ч. 29 м.
Битрейт : 4935 Кбит/сек
Ширина : 1280 пикселей
Высота : 544 пикселя
Соотношение сторон : 2,35:1
Режим частоты кадров : Постоянный
Частота кадров : 25,000 кадров/сек
Цветовое пространство : YUV
Субдискретизация насыщенности : 4:2:0
Битовая глубина : 8 бит
Тип развёртки : Прогрессивная
Бит/(Пиксели*Кадры) : 0.283
Размер потока : 3,02 Гбайт (91%)
Заголовок : Release Group CINEMANIA
Библиотека кодирования : x264 core 138 r2359+704+48 3f879a0 tMod [8-bit@all X86_64]
Настройки программы : cabac=1 / ref=9 / deblock=1:-3:-3 / analyse=0x3:0x133 / me=umh / subme=9 / psy=1 / fade_compensate=0.00 / psy_rd=1.10:0.00 / mixed_ref=1 / me_range=32 / chroma_me=1 / trellis=2 / 8x8dct=1 / cqm=0 / deadzone=21,11 / fast_pskip=0 / chroma_qp_offset=-2 / threads=18 / lookahead_threads=2 / sliced_threads=0 / nr=0 / decimate=0 / interlaced=0 / bluray_compat=0 / constrained_intra=0 / fgo=0 / bframes=6 / b_pyramid=2 / b_adapt=2 / b_bias=0 / direct=3 / weightb=1 / open_gop=0 / weightp=2 / keyint=240 / keyint_min=24 / scenecut=40 / intra_refresh=0 / rc_lookahead=120 / rc=2pass / mbtree=1 / bitrate=4935 / ratetol=1.0 / qcomp=0.70 / qpmin=0:0:0 / qpmax=69:69:69 / qpstep=4 / cplxblur=20.0 / qblur=0.5 / vbv_maxrate=45000 / vbv_bufsize=35000 / nal_hrd=none / ip_ratio=1.10 / aq=1:0.90 / aq-sensitivity=10.00 / aq-factor=1.00:1.00:1.00 / aq2=0 / aq3=0
Default : Да
Forced : Нет
Аудио #1
Идентификатор : 2
Формат : AC-3
Формат/Информация : Audio Coding 3
Расширение режима : CM (complete main)
Параметр Endianness формата : Big
Идентификатор кодека : A_AC3
Продолжительность : 1 ч. 29 м.
Вид битрейта : Постоянный
Битрейт : 192 Кбит/сек
Каналы : 2 канала
Расположение каналов : Front: L R
Частота : 48,0 КГц
Битовая глубина : 16 бит
Метод сжатия : С потерями
Размер потока : 123 Мбайт (4%)
Заголовок : Влад и Снежинка
Язык : Russian
Default : Да
Forced : Да
Аудио #2
Идентификатор : 3
Формат : AC-3
Формат/Информация : Audio Coding 3
Расширение режима : CM (complete main)
Параметр Endianness формата : Big
Идентификатор кодека : A_AC3
Продолжительность : 1 ч. 29 м.
Вид битрейта : Постоянный
Битрейт : 192 Кбит/сек
Каналы : 2 канала
Расположение каналов : Front: L R
Частота : 48,0 КГц
Битовая глубина : 16 бит
Метод сжатия : С потерями
Размер потока : 123 Мбайт (4%)
Язык : Chinese
Default : Нет
Forced : Нет

Скриншоты


_________________
[Торрент-статистика]
[Профиль]  [ЛС] 
Показать сообщения:    
Ответить на тему

Текущее время: Сегодня 22:08

Часовой пояс: GMT + 4



Вы не можете начинать темы
Вы не можете отвечать на сообщения
Вы не можете редактировать свои сообщения
Вы не можете удалять свои сообщения
Вы не можете голосовать в опросах
Вы не можете прикреплять файлы к сообщениям
Вы не можете скачивать файлы