Контроль / Control (Кеннет Би / Kenneth Bi) [2013 г., триллер, DVDRip] DVO

Ответить на тему
 
Автор
Сообщение

TiZAr ®

Пол:

Стаж: 3 года 3 месяца

Сообщений: 836

Репутация: 1157 [+] [-]

Откуда: Россия

Пост 28-Фев-2014 19:27

[Цитировать] 

Контроль / Control- Год выпуска: 2013
Страна: Гонконг, Китай / Diversion Pictures
Жанр: триллер
Продолжительность: 01:32:19
Перевод: Любительский (двухголосый закадровый) - [Ольга Гринтиева и Константин Романов]
Cубтитры: нет
Оригинальная аудиодорожка: нет
Режиссер: Кеннет Би / Kenneth Bi- -В ролях:
Дэниэл Ву, Яо Чэнь, Леон Дай, Саймон Ям, Кара Хуи, Ади Ан, Шао Бин, Jia-yi Feng, Боцзе Хао, Эдди Пэнг и др.
Описание:
Недалекое будущее. Главный герой Марк решается на лжесвидетельство для своей компании для того, чтобы помочь своей душевнобольной матери. Но тут появляется таинственный человек, который заставляет его ограбить банк, а затем и вовсе начинает его контролировать. Но вскоре Марк решается избавиться от его контроля…
Качество: DVDRip
Формат: AVI
Видео: 720x304 (2.37:1), 23.975 fps, XviD build 62 ~1916 kbps avg, 0.36 bit/pixel
Аудио: 44.1 kHz, AC3 Dolby Digital, 2/0 (L,R) ch, ~192 kbps

MI

Код:
General
Complete name                            : E:\downloads\Control.2013.DVDRip.1400MB.avi
Format                                   : AVI
Format/Info                              : Audio Video Interleave
File size                                : 1.36 GiB
Duration                                 : 1h 32mn
Overall bit rate                         : 2 117 Kbps
Movie name                               : Kontrolj.2013.DVDRip.GOLIAF.TV
Director                                 : -=REGIS1975=-Control-=GOLIAF.TV=-
Genre                                    : Action / Crime /Thriller / Drama
Writing application                      : VirtualDubMod 1.5.4.1 (build 2066/release)
Original source form/Name                : Movie
Copyright                                : http://goliaf.tv/
Comment                                  : Rus.L.2.[GREEN TEA]
Video
ID                                       : 0
Format                                   : MPEG-4 Visual
Format profile                           : Advanced Simple@L5
Format settings, BVOP                    : No
Format settings, QPel                    : No
Format settings, GMC                     : No warppoints
Format settings, Matrix                  : Default (H.263)
Codec ID                                 : XVID
Codec ID/Hint                            : XviD
Duration                                 : 1h 32mn
Bit rate                                 : 1 916 Kbps
Width                                    : 720 pixels
Height                                   : 304 pixels
Display aspect ratio                     : 2.35:1
Frame rate                               : 23.976 fps
Color space                              : YUV
Chroma subsampling                       : 4:2:0
Bit depth                                : 8 bits
Scan type                                : Progressive
Compression mode                         : Lossy
Bits/(Pixel*Frame)                       : 0.365
Stream size                              : 1.24 GiB (91%)
Writing library                          : XviD 62
Audio
ID                                       : 1
Format                                   : AC-3
Format/Info                              : Audio Coding 3
Mode extension                           : CM (complete main)
Format settings, Endianness              : Big
Codec ID                                 : 2000
Duration                                 : 1h 32mn
Bit rate mode                            : Constant
Bit rate                                 : 192 Kbps
Channel count                            : 2 channels
Channel positions                        : Front: L R
Sampling rate                            : 44.1 KHz
Bit depth                                : 16 bits
Compression mode                         : Lossy
Stream size                              : 126 MiB (9%)
Alignment                                : Split accross interleaves
Interleave, duration                     : 42 ms (1.00 video frame)
Interleave, preload duration             : 500 ms

Скриншоты


_________________
Не стоит обращать внимания на отсутствие сидов на моих раздачах. Все мои релизы мультитрекерные - нет сидов, включите DHT.
За релизами в HD качестве обращайтесь в личку, либо отписывайтесь в теме.
[Торрент-статистика]
[Профиль]  [ЛС] 
Показать сообщения:    
Ответить на тему

Текущее время: Сегодня 01:50

Часовой пояс: GMT + 4



Вы не можете начинать темы
Вы не можете отвечать на сообщения
Вы не можете редактировать свои сообщения
Вы не можете удалять свои сообщения
Вы не можете голосовать в опросах
Вы не можете прикреплять файлы к сообщениям
Вы не можете скачивать файлы