Тайная миссия / Secretly Greatly (Чхоль-су Янг / Chul-soo Jang) [2013 г., боевик, комедия, драма, HDRip] DVO (Елена Егорова и Валерий Феодосов)

Ответить на тему
 
Автор
Сообщение

TiZAr ®

Пол:

Стаж: 3 года 3 месяца

Сообщений: 836

Репутация: 1157 [+] [-]

Откуда: Россия

Пост 08-Дек-2013 12:48

[Цитировать] 

Тайная миссия / Secretly Greatly- Год выпуска: 2013
Страна: Южная Корея / MCMC
Жанр: боевик, комедия, драма
Продолжительность: 02:04:07
Перевод: Любительский (двухголосый) [Елена Егорова & Валерий Феодосов]
Субтитры: нет
Оригинальная аудиодорожка: нет
Режиссер: Чхоль-су Янг / Chul-soo Jang- -В ролях:
Ким Су Хён, Ко Чан Сок, Пак Ки Ун, Hye-soo Park, Сон Хён Чжу, Ли Хён У, Чхве У Сик и др.
Описание:
Эта яркая история с динамичным сюжетом основана на популярной веб-манхве "Covertly Gloriously". Корпус 5446, якобы призванный служить высокой миссии объединения Севера и Юга - элитный шпионский отряд бойцов, которых тренируют с юных лет лучшие военные Северной Кореи.
Члены отряда, полные амбиций ребята, отправляются в Южную Корею, где маскируются под самых обычных людей: Вон Рю Хван (Ким Су Хён) под простоватого дурачка, Ри Хэ Ран (Пак Ки Ун) - начинающего певца и Ри Хэ Чин (Ли Хён У) - под ученика старшей школы. Всем троим приходится жить в бедном районе Сеула и не получая приказов от руководства, постепенно начинают привыкать к тихой и мирной жизни. Однако, как снег на голову, спустя два года ожидания, они получают спец-задание от своей родины
После событий Второй Битвы при Енпёндон, Южная Корея выступает с требованием рассекретить имена и месторасположение 30 северокорейских шпионов, которые служат на территории Юга. В обмен на выполнение условий, Юг обещает оказать Пхеньяну финансовую поддержку. Дабы не допустить попадания военной элиты в руки противника, командование приказывает всем разведчикам на территории страны свести счеты с жизнью, а за теми, кто не желает этого делать, они отправляют Ким Тхэ Вона.
Качество: HDRip | Исходник - неизвестен | Сэмпл
Формат: AVI
Видео: MPEG4, XviD, 704x304 (2.35:1), 23.976 fps, 1 475 Kbps (0.287 bit/pixel)
Аудио: AC-3, 48.0 KHz, 2 ch, 192 Kbps, CBR

MI

Код:
General
Complete name                            : E:\downloads\Tainaja.misija.2013.HDRip.avi
Format                                   : AVI
Format/Info                              : Audio Video Interleave
File size                                : 1.45 GiB
Duration                                 : 2h 4mn
Overall bit rate                         : 1 677 Kbps
Movie name                               : Tainaja.misija.2013.L2.HDRip.[bittotl.ru]
Director                                 : [bittotl.ru]
Genre                                    : Action/Comedy/Adventure/Drama
Writing application                      : VirtualDubMod 1.5.10.2 (build 2540/release)
Original source form/Name                : Movie
Video
ID                                       : 0
Format                                   : MPEG-4 Visual
Format profile                           : Advanced Simple@L5
Format settings, BVOP                    : 1
Format settings, QPel                    : No
Format settings, GMC                     : No warppoints
Format settings, Matrix                  : Custom
Codec ID                                 : XVID
Codec ID/Hint                            : XviD
Duration                                 : 2h 4mn
Bit rate                                 : 1 475 Kbps
Width                                    : 704 pixels
Height                                   : 304 pixels
Display aspect ratio                     : 2.35:1
Frame rate                               : 23.976 fps
Color space                              : YUV
Chroma subsampling                       : 4:2:0
Bit depth                                : 8 bits
Scan type                                : Progressive
Compression mode                         : Lossy
Bits/(Pixel*Frame)                       : 0.287
Stream size                              : 1.28 GiB (88%)
Writing library                          : XviD 72
Audio
ID                                       : 1
Format                                   : AC-3
Format/Info                              : Audio Coding 3
Mode extension                           : CM (complete main)
Format settings, Endianness              : Big
Codec ID                                 : 2000
Duration                                 : 2h 4mn
Bit rate mode                            : Constant
Bit rate                                 : 192 Kbps
Channel count                            : 2 channels
Channel positions                        : Front: L R
Sampling rate                            : 48.0 KHz
Bit depth                                : 16 bits
Compression mode                         : Lossy
Stream size                              : 170 MiB (11%)
Alignment                                : Split accross interleaves
Interleave, duration                     : 42 ms (1.00 video frame)
Interleave, preload duration             : 500 ms

Скриншоты


_________________
Не стоит обращать внимания на отсутствие сидов на моих раздачах. Все мои релизы мультитрекерные - нет сидов, включите DHT.
За релизами в HD качестве обращайтесь в личку, либо отписывайтесь в теме.
[Торрент-статистика]
[Профиль]  [ЛС] 

BrooTForce

Стаж: 4 года 2 месяца

Сообщений: 1

Репутация: -3 [+] [-]

Пост 08-Дек-2013 19:06 (спустя 6 часов)

[Цитировать] 

хуманоиды епт
!ArtZak писал(а):

Расссовой дескриминации не допущу - еще 1 подобный коммент и будут последствия!
[Торрент-статистика]
[Профиль]  [ЛС] 
Показать сообщения:    
Ответить на тему

Текущее время: Сегодня 15:33

Часовой пояс: GMT + 4



Вы не можете начинать темы
Вы не можете отвечать на сообщения
Вы не можете редактировать свои сообщения
Вы не можете удалять свои сообщения
Вы не можете голосовать в опросах
Вы не можете прикреплять файлы к сообщениям
Вы не можете скачивать файлы