Доберман / Dobermann (Ян Каунен) [1997 г., Триллер,Драма,Криминал, BDRip-AVC 1080p]

Ответить на тему
 
Автор
Сообщение

nova1980 ®

Пол:

Стаж: 5 лет

Сообщений: 820

Репутация: 523 [+] [-]

Откуда: Одесса Мама

Пост 18-Ноя-2013 02:05

[Цитировать] 

Доберман / Dobermann-Год выпуска: 1997
Страна: Франция
Жанр: Триллер,Драма,Криминал
Продолжительность: 01:43:06
Перевод: Профессиональный (многоголосый, закадровый)-Режиссер: Ян Каунен-В ролях: Венсан Кассель, Чеки Карио, Моника Беллуччи, Антуан Баслер, Доминик Беттенфельд, Паскаль Демолон, Марк Дюре, Ромен Дюри, Франсуа Леванталь, Иван Мерат-Барбофф-Описание: Герою фильма уже в день крестин один из друзей отца дарит Магнум-357. Мальчик вырос и стал супернаглым и дерзким грабителем по кличке Доберман. 357-й магнум заменили самые современные виды огнестрельного оружия, включая даже небольшие ракеты, которыми можно стрелять, навинчивая их на ствол пистолета.
Вместе с ним всегда его глухая подруга, спокойно красящая ногти во время ограбления инкассаторов. Все члены банды — еще те типажи! Ловит же его жестокий полицейский рядом с которым Грязный Гарри — просто бойскаут. Он одержимо хочет поймать или убить Добермана и для достижения своей цели готов пойти на все и даже преступить закон.- -Тип релиза: BDRip-AVC [1080p]
Контейнер: MKV
Видео кодек: H264 (AVC)
Аудио кодек: DTS
Видео: MPEG-4 (H.264),1920x816 (2,35:1), 24 fps, ~10,3 mb/s, 0.273 bit/pixel
Аудио: 1. DTS, 48,0 kHz, 6 ch, 755 kbps (Русский многоголосый закадровый Superbit)
Аудио: 2. DTS, 48,0 kHz, 6 ch, 755 kbps (Авторский одноголосый - Ю.Сербин)
Аудио: 3. DTS, 48,0 kHz, 6 ch, 1510 kbps (Авторский одноголосый - Л.Володарский)
Аудио: 4. DTS, 48,0 kHz, 6 ch, 1510 kbps (Оригинальный Французский)-Язык субтитров: 1. Русские
Язык субтитров: 2. Английские
Язык субтитров: 3. Французский-

MI

General
Complete name : E:Доберман (1997) [1080p] BDRip-AVC.mkv
Format : Matroska
File size : 10.7 GiB
Duration : 1h 43mn
Overall bit rate : 14.8 Mbps
Encoded date : UTC 2011-07-29 04:53:43
Writing application : mkvmerge v4.0.0 ('The Stars were mine') сборка от Jun 6 2010 16:18:42
Writing library : libebml v1.0.0 + libmatroska v1.0.0
Video #1
ID : 1
Format : AVC
Format/Info : Advanced Video Codec
Format profile : High@L4.1
Format settings, CABAC : Yes
Format settings, ReFrames : 3 frames
Muxing mode : Container profile=Unknown@4.1
Codec ID : V_MPEG4/ISO/AVC
Duration : 1h 43mn
Bit rate : 10.3 Mbps
Width : 1 920 pixels
Height : 816 pixels
Display aspect ratio : 2.35:1
Frame rate : 24.000 fps
Color space : YUV
Chroma subsampling : 4:2:0
Bit depth : 8 bits
Scan type : Progressive
Bits/(Pixel*Frame) : 0.273
Stream size : 7.19 GiB (67%)
Title : Dobermann.1997.1080p.BluRay.DTS.x264-HDv0dayTeam
Writing library : x264 core 68 r1183M f21daff
Encoding settings : cabac=1 / ref=3 / deblock=1:-3:-3 / analyse=0x3:0x113 / me=umh / subme=9 / psy_rd=1.0:0.0 / mixed_ref=1 / me_range=16 / chroma_me=1 / trellis=2 / 8x8dct=1 / cqm=0 / deadzone=21,11 / chroma_qp_offset=-2 / threads=6 / nr=0 / decimate=1 / mbaff=0 / bframes=5 / b_pyramid=0 / b_adapt=2 / b_bias=0 / direct=1 / wpredb=1 / keyint=250 / keyint_min=25 / scenecut=40 / rc=2pass / bitrate=10280 / ratetol=1.0 / qcomp=0.60 / qpmin=10 / qpmax=51 / qpstep=4 / cplxblur=20.0 / qblur=0.5 / ip_ratio=1.40 / pb_ratio=1.30 / aq=1:1.00
Language : English
Audio #2
ID : 2
Format : DTS
Format/Info : Digital Theater Systems
Codec ID : A_DTS
Duration : 1h 43mn
Bit rate mode : Constant
Bit rate : 755 Kbps
Channel(s) : 6 channels
Channel positions : Front: L C R, Side: L R, LFE
Sampling rate : 48.0 KHz
Bit depth : 24 bits
Stream size : 556 MiB (5%)
Title : [MVO] Superbit
Language : Russian
Audio #6
ID : 6
Format : DTS
Format/Info : Digital Theater Systems
Codec ID : A_DTS
Duration : 1h 43mn
Bit rate mode : Constant
Bit rate : 1 510 Kbps
Channel(s) : 6 channels
Channel positions : Front: L C R, Side: L R, LFE
Sampling rate : 48.0 KHz
Bit depth : 24 bits
Stream size : 1.09 GiB (10%)
Title : [VO] Володарский
Language : Russian
Audio #7
ID : 7
Format : DTS
Format/Info : Digital Theater Systems
Codec ID : A_DTS
Duration : 1h 43mn
Bit rate mode : Constant
Bit rate : 755 Kbps
Channel(s) : 6 channels
Channel positions : Front: L C R, Side: L R, LFE
Sampling rate : 48.0 KHz
Bit depth : 24 bits
Stream size : 556 MiB (5%)
Title : [VO] Сербин
Language : Russian
Audio #8
ID : 8
Format : DTS
Format/Info : Digital Theater Systems
Codec ID : A_DTS
Duration : 1h 43mn
Bit rate mode : Constant
Bit rate : 1 510 Kbps
Channel(s) : 6 channels
Channel positions : Front: L C R, Side: L R, LFE
Sampling rate : 48.0 KHz
Bit depth : 24 bits
Stream size : 1.09 GiB (10%)
Title : Original
Language : French
Text #3
ID : 3
Format : UTF-8
Codec ID : S_TEXT/UTF8
Codec ID/Info : UTF-8 Plain Text
Language : Russian
Text #4
ID : 4
Format : UTF-8
Codec ID : S_TEXT/UTF8
Codec ID/Info : UTF-8 Plain Text
Language : French
Text #5
ID : 5
Format : UTF-8
Codec ID : S_TEXT/UTF8
Codec ID/Info : UTF-8 Plain Text
Language : English
-

Скриншоты


_________________
Мои Раздачи
[Торрент-статистика]
[Профиль]  [ЛС] 

ArtZak

Пол:

Стаж: 5 лет 1 месяц

Сообщений: 3008

Репутация: 1363 [+] [-]

Откуда: Россия

Пост 18-Ноя-2013 13:56 (спустя 11 часов)

[Цитировать] 

nova1980, зачет! Классный фильм "того" времени!
[Торрент-статистика]
[Профиль]  [ЛС] 
Показать сообщения:    
Ответить на тему

Текущее время: Сегодня 12:15

Часовой пояс: GMT + 4



Вы не можете начинать темы
Вы не можете отвечать на сообщения
Вы не можете редактировать свои сообщения
Вы не можете удалять свои сообщения
Вы не можете голосовать в опросах
Вы не можете прикреплять файлы к сообщениям
Вы не можете скачивать файлы