Остин Пауэрс: коллекция / Austin Powers Collection (Джей Роуч) [1997/1999/2002 г., Боевик, комедия, приключения, криминал, BDRip] Shagadelic Edition

Ответить на тему
 
Автор
Сообщение

alien.09 ®

Пол:

Стаж: 3 года 7 месяцев

Сообщений: 748

Репутация: 550 [+] [-]

Пост 23-Июн-2013 00:34

[Цитировать] 

--Остин Пауэрс: коллекция / Austin Powers Collection: Shagadelic Edition--
Год выпуска
: 1997/1999/2002
Страна: Германия, США
Жанр: Боевик, комедия, приключения, криминал
Продолжительность: 01:29:35 | 01:35:02 | 01:34:32--Режиссер: Джей Роуч--Тип релиза: BDRip
Контейнер: MKV
Видео кодек: H264 (AVC)
Аудио кодек: AC3 (Dolby Digital)
--

Остин Пауэрс: Человек-загадка международного масштаба

--Остин Пауэрс: Человек-загадка международного масштаба / Austin Powers: International Man of Mystery--Год выпуска: 1997
Страна: Германия, США
Жанр: Боевик, комедия, приключения, криминал
Продолжительность: 01:29:35
Перевод: профессиональный (многоголосый закадровый)-Режиссер: Джей Роуч-В ролях: Майк Майерс, Элизабет Херли, Майкл Йорк, Мими Роджерс, Роберт Вагнер, Сет Грин, Фабиана Уденио, Мелинда Стерлинг, Пол Диллон, Чарльз Нэпьер-Описание: Мир в опасности: великий и ужасный Доктор Зло угрожает запустить ядерную ракету, требуя 100 миллиардов долларов! Но на каждого суперзлодея есть свой супергерой. Спустя 30 лет, проведенных в криогенной камере, неподражаемый Остин Пауэрс, лучший секретный агент Ее Величества и любимец всех женщин, разморожен и вновь готов к действиям! Вместе с напарницей, очаровательной Ванессой, он легко обойдет все хитроумные ловушки, расставленные коварным противником, и спасет человечество!...-- --Тип релиза: BDRip
Контейнер: MKV
Видео кодек: H264(AVC)
Аудио кодек: AC3
Видео: AVC at 1081 Кбит/сек, 720 x 304 (2.352) at 23.976 fps
Аудио: AC-3 at 384 Кбит/сек, 6 каналов, 48,0 КГц

MI Report

Общее
Уникальный идентификатор : 223116703155286656414959308668462902265 (0xA7DAB6C6BC720F1E8961A3D201672BF9)
Полное имя : C:\Users\Gary\Внеха\Остин Пауэрс Трилогия\Остин Пауэрс Человек-загадка международного масштаба.mkv
Формат : Matroska
Версия формата : Version 4 / Version 2
Размер файла : 957 Мбайт
Продолжительность : 1 ч. 29 м.
Общий поток : 1493 Кбит/сек
Дата кодирования : UTC 2013-06-21 22:05:47
Программа кодирования : mkvmerge v6.2.0 ('Promised Land') built on Apr 28 2013 12:22:01
Библиотека кодирования : XviD4PSP 6.0 / 54.29.105
Видео
Идентификатор : 1
Формат : AVC
Формат/Информация : Advanced Video Codec
Профиль формата : High@L4.1
Параметр CABAC формата : Да
Параметр ReFrames формата : 3 кадра
Идентификатор кодека : V_MPEG4/ISO/AVC
Продолжительность : 1 ч. 29 м.
Битрейт : 1079 Кбит/сек
Ширина : 720 пикселей
Высота : 304 пикселя
Соотношение сторон : 2,35:1
Соотношение сторон в оригинале : 2,35:1
Режим частоты кадров : Постоянный
Частота кадров : 23,976 кадра/сек
Цветовое пространство : YUV
Субдискретизация насыщенности : 4:2:0
Битовая глубина : 8 бит
Тип развёртки : Прогрессивная
Бит/(Пиксели*Кадры) : 0.206
Размер потока : 692 Мбайт (72%)
Заголовок : Остин Пауэрс: Человек-загадка международного масштаба (1997 BDRip) RG BrodimCom
Библиотека кодирования : x264 core 128 r2216M 198a7ea
Настройки программы : cabac=1 / ref=3 / deblock=1:0:0 / analyse=0x3:0x133 / me=hex / subme=7 / psy=1 / psy_rd=1.00:0.20 / mixed_ref=1 / me_range=16 / chroma_me=1 / trellis=1 / 8x8dct=1 / cqm=0 / deadzone=21,11 / fast_pskip=1 / chroma_qp_offset=-3 / threads=8 / lookahead_threads=1 / sliced_threads=0 / nr=0 / decimate=1 / interlaced=0 / bluray_compat=0 / constrained_intra=0 / bframes=3 / b_pyramid=1 / b_adapt=2 / b_bias=0 / direct=3 / weightb=1 / open_gop=0 / weightp=2 / keyint=230 / keyint_min=23 / scenecut=40 / intra_refresh=0 / rc_lookahead=40 / rc=crf / mbtree=1 / crf=20.0 / qcomp=0.60 / qpmin=10 / qpmax=51 / qpstep=4 / ip_ratio=1.40 / aq=1:1.00
Default : Да
Forced : Нет
Аудио
Идентификатор : 2
Формат : AC-3
Формат/Информация : Audio Coding 3
Расширение режима : CM (complete main)
Параметр Endianness формата : Big
Идентификатор кодека : A_AC3
Продолжительность : 1 ч. 29 м.
Вид битрейта : Постоянный
Битрейт : 384 Кбит/сек
Каналы : 6 каналов
Расположение каналов : Front: L C R, Side: L R, LFE
Частота : 48,0 КГц
Битовая глубина : 16 бит
Метод сжатия : С потерями
Задержка видео : 27 мс.
Размер потока : 246 Мбайт (26%)
Заголовок : АС3
Язык : Russian
Default : Да
Forced : Нет

Скриншоты

Остин Пауэрс: Шпион, который меня соблазнил

--Остин Пауэрс: Шпион, который меня соблазнил / Austin Powers: The Spy Who Shagged Me--Год выпуска: 1999
Страна: Германия, США
Жанр: Боевик, комедия, приключения, криминал
Продолжительность: 01:35:02
Перевод: профессиональный (полное дублирование)-Режиссер: Джей Роуч-В ролях: Майк Майерс, Хэзер Грэм, Майкл Йорк, Роберт Вагнер, Роб Лоу, Сет Грин, Мелинда Стерлинг, Верн Тройер, Элизабет Херли, Гия Каридес-Описание: Мечтающий о мировом господстве Доктор Зло отправляется назад в свингующие 60-е, чтобы похитить «моджо» плейбоя и суперагента Остина Пауэрса- талисман, гарантирующий ему успех у женщин. Смертельная схватка неизбежна.
Остин бросается в погоню за своим врагом, чтобы вместе с соблазнительной помощницей Фелицией Трахвелл спасти мир, вернуть свою гиперсексуальность и… успеть домой как раз к чаю…-- --Тип релиза: BDRip
Контейнер: MKV
Видео кодек: H264(AVC)
Аудио кодек: AC3
Видео: AVC at 1446 Кбит/сек, 720 x 304 (2.352) at 23.976 fps
Аудио: AC-3 at 384 Кбит/сек, 6 каналов, 48,0 КГц

MI Report

Общее
Уникальный идентификатор : 231213215147930664628913954000240281409 (0xADF20BA335E443B493591EFC0FAE8741)
Полное имя : C:\Users\Gary\Внеха\Остин Пауэрс Трилогия\Остин Пауэрс Шпион который меня соблазнил.mkv
Формат : Matroska
Версия формата : Version 4 / Version 2
Размер файла : 1,25 Гбайт
Продолжительность : 1 ч. 35 м.
Общий поток : 1886 Кбит/сек
Название фильма : Остин Пауэрс: Шпион, который меня соблазнил (1999 BDRip) RG BrodimCom
Дата кодирования : UTC 2013-06-21 22:08:10
Программа кодирования : mkvmerge v6.2.0 ('Promised Land') built on Apr 28 2013 12:22:01
Библиотека кодирования : XviD4PSP 6.0 / 54.29.105
Видео
Идентификатор : 1
Формат : AVC
Формат/Информация : Advanced Video Codec
Профиль формата : High@L4.1
Параметр CABAC формата : Да
Параметр ReFrames формата : 3 кадра
Идентификатор кодека : V_MPEG4/ISO/AVC
Продолжительность : 1 ч. 35 м.
Битрейт : 1464 Кбит/сек
Ширина : 720 пикселей
Высота : 304 пикселя
Соотношение сторон : 2,35:1
Соотношение сторон в оригинале : 2,35:1
Режим частоты кадров : Постоянный
Частота кадров : 23,976 кадра/сек
Цветовое пространство : YUV
Субдискретизация насыщенности : 4:2:0
Битовая глубина : 8 бит
Тип развёртки : Прогрессивная
Бит/(Пиксели*Кадры) : 0.279
Размер потока : 996 Мбайт (78%)
Заголовок : Остин Пауэрс: Шпион, который меня соблазнил
Библиотека кодирования : x264 core 128 r2216M 198a7ea
Настройки программы : cabac=1 / ref=3 / deblock=1:0:0 / analyse=0x3:0x133 / me=hex / subme=7 / psy=1 / psy_rd=1.00:0.20 / mixed_ref=1 / me_range=16 / chroma_me=1 / trellis=1 / 8x8dct=1 / cqm=0 / deadzone=21,11 / fast_pskip=1 / chroma_qp_offset=-3 / threads=8 / lookahead_threads=1 / sliced_threads=0 / nr=0 / decimate=1 / interlaced=0 / bluray_compat=0 / constrained_intra=0 / bframes=3 / b_pyramid=1 / b_adapt=2 / b_bias=0 / direct=3 / weightb=1 / open_gop=0 / weightp=2 / keyint=230 / keyint_min=23 / scenecut=40 / intra_refresh=0 / rc_lookahead=40 / rc=crf / mbtree=1 / crf=20.0 / qcomp=0.60 / qpmin=10 / qpmax=51 / qpstep=4 / ip_ratio=1.40 / aq=1:1.00
Default : Да
Forced : Нет
Аудио
Идентификатор : 2
Формат : AC-3
Формат/Информация : Audio Coding 3
Расширение режима : CM (complete main)
Параметр Endianness формата : Big
Идентификатор кодека : A_AC3
Продолжительность : 1 ч. 35 м.
Вид битрейта : Постоянный
Битрейт : 384 Кбит/сек
Каналы : 6 каналов
Расположение каналов : Front: L C R, Side: L R, LFE
Частота : 48,0 КГц
Битовая глубина : 16 бит
Метод сжатия : С потерями
Задержка видео : 27 мс.
Размер потока : 261 Мбайт (20%)
Заголовок : АС3
Язык : Russian
Default : Да
Forced : Нет

Скриншоты

Остин Пауэрс: Голдмембер

--Остин Пауэрс: Голдмембер / Austin Powers in Goldmember--Год выпуска: 2002
Страна: Германия, США
Жанр: Боевик, комедия, приключения, криминал
Продолжительность: 01:34:32
Перевод: профессиональный (полное дублирование)-Режиссер: Джей Роуч-В ролях: Майк Майерс, Бейонсе Ноулз, Сет Грин, Майкл Йорк, Роберт Вагнер, Мелинда Стерлинг, Верн Тройер, Майкл Кейн, Фред Сэвадж, Дайан Мизота-Описание: В 1975 году отец Остина Пауэрса — знаменитый английский шпион Нейджел Пауэрс — был похищен голландским злодеем Голдмембером. Теперь, в 21-ом веке, знаменитый шпион Остин Пауэрс решает помочь своему отцу. Заручившись поддержкой своего давнего врага — Доктора Зла, с помощью его машины времени Остин совершает прыжок во времени.
Он оказывается в 1975 году, в эпохе диско. Однако вскоре выясняется, что одержимый идеей завоевать весь мир Доктор Зло, был сам в сговоре с Голдмембером и возможно причастен к похищению отца Остина. Может быть, похищение Нейджела Пауэрса — это всего лишь уловка двух злодеев, совершенная, чтобы заманить к себе Остина Пауэрса?
Вместе со своей очаровательной давней подружкой Фокси Клеопатрой Остин Пауэрс пытается распутать злодейские планы Доктора Зла и Голдмембера, чтобы не только выручить своего отца, но и спасти весь мир от этих злодеев…-- --Тип релиза: BDRip
Контейнер: MKV
Видео кодек: H264(AVC)
Аудио кодек: AC3
Видео: AVC at 1235 Кбит/сек, 720 x 304 (2.352) at 23.976 fps
Аудио: AC-3 at 384 Кбит/сек, 6 каналов, 48,0 КГц

MI Report

Общее
Уникальный идентификатор : 180465176879873713030517043882400141094 (0x87C4542CB5906CF3A01E3AC33A17CF26)
Полное имя : C:\Users\Gary\Внеха\Остин Пауэрс Трилогия\Остин Пауэрс Голдмембер.mkv
Формат : Matroska
Версия формата : Version 4 / Version 2
Размер файла : 1,09 Гбайт
Продолжительность : 1 ч. 34 м.
Общий поток : 1651 Кбит/сек
Название фильма : Остин Пауэрс: Голдмембер
Дата кодирования : UTC 2013-06-21 22:04:19
Программа кодирования : mkvmerge v6.2.0 ('Promised Land') built on Apr 28 2013 12:22:01
Библиотека кодирования : XviD4PSP 6.0 / 54.29.105
Видео
Идентификатор : 1
Формат : AVC
Формат/Информация : Advanced Video Codec
Профиль формата : High@L4.1
Параметр CABAC формата : Да
Параметр ReFrames формата : 3 кадра
Идентификатор кодека : V_MPEG4/ISO/AVC
Продолжительность : 1 ч. 34 м.
Битрейт : 1234 Кбит/сек
Ширина : 720 пикселей
Высота : 304 пикселя
Соотношение сторон : 2,35:1
Соотношение сторон в оригинале : 2,35:1
Режим частоты кадров : Постоянный
Частота кадров : 23,976 кадра/сек
Цветовое пространство : YUV
Субдискретизация насыщенности : 4:2:0
Битовая глубина : 8 бит
Тип развёртки : Прогрессивная
Бит/(Пиксели*Кадры) : 0.235
Размер потока : 834 Мбайт (75%)
Заголовок : Остин Пауэрс: Голдмембер (2002 BDRip) RG BrodimCom
Библиотека кодирования : x264 core 128 r2216M 198a7ea
Настройки программы : cabac=1 / ref=3 / deblock=1:0:0 / analyse=0x3:0x133 / me=hex / subme=7 / psy=1 / psy_rd=1.00:0.20 / mixed_ref=1 / me_range=16 / chroma_me=1 / trellis=1 / 8x8dct=1 / cqm=0 / deadzone=21,11 / fast_pskip=1 / chroma_qp_offset=-3 / threads=8 / lookahead_threads=1 / sliced_threads=0 / nr=0 / decimate=1 / interlaced=0 / bluray_compat=0 / constrained_intra=0 / bframes=3 / b_pyramid=1 / b_adapt=2 / b_bias=0 / direct=3 / weightb=1 / open_gop=0 / weightp=2 / keyint=230 / keyint_min=23 / scenecut=40 / intra_refresh=0 / rc_lookahead=40 / rc=crf / mbtree=1 / crf=20.0 / qcomp=0.60 / qpmin=10 / qpmax=51 / qpstep=4 / ip_ratio=1.40 / aq=1:1.00
Default : Да
Forced : Нет
Аудио
Идентификатор : 2
Формат : AC-3
Формат/Информация : Audio Coding 3
Расширение режима : CM (complete main)
Параметр Endianness формата : Big
Идентификатор кодека : A_AC3
Продолжительность : 1 ч. 34 м.
Вид битрейта : Постоянный
Битрейт : 384 Кбит/сек
Каналы : 6 каналов
Расположение каналов : Front: L C R, Side: L R, LFE
Частота : 48,0 КГц
Битовая глубина : 16 бит
Метод сжатия : С потерями
Задержка видео : 27 мс.
Размер потока : 260 Мбайт (23%)
Заголовок : АС3
Язык : Russian
Default : Да
Forced : Нет

Скриншоты


_________________
Правообладатели, убейтесь об эту надпись.
[Торрент-статистика]
[Профиль]  [ЛС] 
Показать сообщения:    
Ответить на тему

Текущее время: Сегодня 16:31

Часовой пояс: GMT + 4



Вы не можете начинать темы
Вы не можете отвечать на сообщения
Вы не можете редактировать свои сообщения
Вы не можете удалять свои сообщения
Вы не можете голосовать в опросах
Вы не можете прикреплять файлы к сообщениям
Вы не можете скачивать файлы