Беляночка и Розочка / Schneeweißchen und Rosenrot (Зигфрид Хартманн / Siegfried Hartmann) [1979, ГДР, Сказка, DVDRip] Dub советский дубляж

Ответить на тему
 
Автор
Сообщение

nova1980 ®

Пол:

Стаж: 5 лет

Сообщений: 820

Репутация: 523 [+] [-]

Откуда: Одесса Мама

Пост 04-Фев-2012 02:07

[Цитировать] 

- Страна: ГДР
Жанр: Сказка
Год выпуска: 1979
Продолжительность: 01:07:23
Перевод: Профессиональный (дублированный) советский дубляж
Cубтитры: нет-Режиссер: Зигфрид Хартманн / Siegfried Hartmann-В ролях: Юлия Юриштова / Julie Juristová, Катрин Мартин / Katrin Martin, Павел Травничек / Pavel Trávnícek, Бодо Волф / Bodo Wolf, Ханс-Питер Минетти / Hans-Peter Minetti-Описание: По сказке братьев Гримм. Две сестры, Беляночка и Розочка, живут в заброшенной долине вместе со своей матерью. Эта долина была покинута людьми из-за поверья, что в старой штольне поселился злой горный дух. Однажды на ярмарке Беляночка и Розочка встречают двух принцев, которые выдают себя за простых охотников. Принцы влюбляются в девушек и, стремясь помочь людям, отправляются на старую штольню, чтобы освободить ее от злого духа. Однако вместо этого горный дух превращает их в медведя и сокола... И теперь только Беляночка и Розочка могут спасти их.
Качество видео: DVDRip
Формат видео: AVI
Видео: : Xvid 720x400 16:9 25.00fps 2357kbps
Аудио: Dolby AC3 48000Hz stereo 2 сh 192kbps
субтитры: отсутствуют

MediaInfo

General
Complete name : C:\Users\samsung\Videos\Belyanochka i Rozochka DVDRip 1979.avi
Format : AVI
Format/Info : Audio Video Interleave
File size : 1.20 GiB
Duration : 1h 7mn
Overall bit rate : 2 558 Kbps
Writing application : VirtualDubMod 1.5.10.2 (build 2540/release)
Writing library : VirtualDubMod build 2540/release
Video
ID : 0
Format : MPEG-4 Visual
Format profile : Simple@L0
Format settings, BVOP : No
Format settings, QPel : No
Format settings, GMC : No warppoints
Format settings, Matrix : Default (H.263)
Codec ID : XVID
Codec ID/Hint : XviD
Duration : 1h 7mn
Bit rate : 2 357 Kbps
Width : 720 pixels
Height : 400 pixels
Display aspect ratio : 16:9
Frame rate : 25.000 fps
Color space : YUV
Chroma subsampling : 4:2:0
Bit depth : 8 bits
Scan type : Progressive
Bits/(Pixel*Frame) : 0.327
Stream size : 1.11 GiB (92%)
Writing library : XviD 1.3.0.dev55
Audio
ID : 1
Format : AC-3
Format/Info : Audio Coding 3
Mode extension : CM (complete main)
Codec ID : 2000
Duration : 1h 7mn
Bit rate mode : Constant
Bit rate : 192 Kbps
Channel(s) : 2 channels
Channel positions : Front: L R
Sampling rate : 48.0 KHz
Bit depth : 16 bits
Stream size : 92.6 MiB (8%)
Alignment : Aligned on interleaves
Interleave, duration : 40 ms (1.00 video frame)
Interleave, preload duration : 512 ms

Скриншоты


_________________
Мои Раздачи
[Торрент-статистика]
[Профиль]  [ЛС] 
Показать сообщения:    
Ответить на тему

Текущее время: Сегодня 12:13

Часовой пояс: GMT + 4



Вы не можете начинать темы
Вы не можете отвечать на сообщения
Вы не можете редактировать свои сообщения
Вы не можете удалять свои сообщения
Вы не можете голосовать в опросах
Вы не можете прикреплять файлы к сообщениям
Вы не можете скачивать файлы