Приключения Одиссея / Ulisse (Марио Камерини) [1954 г., Приключения, DVDRip-AVC]

Ответить на тему
 
Автор
Сообщение

renta23 ®

Пол:

Стаж: 2 года 3 месяца

Сообщений: 46

Репутация: 38 [+] [-]

Откуда: Брянск

Пост 16-Окт-2014 14:51

[Цитировать] 

Приключения Одиссея
Ulisse
---Год выпуска: 1954
Страна: Италия
Жанр: Приключения
Продолжительность: 01:37:40---Перевод 1: Профессиональный (советский дубляж) "Союзмультфильм"
Перевод 2: Профессиональный (многоголосый закадровый)
Cубтитры: Русские
Режиссер: Марио Камерини
В ролях: Кирк Дуглас, Сильвана Мангано, Энтони Куинн, Россана Подеста, Жак Дюмениль, Даниэль Ивернель, Сильви, Франко Интерленги, Елена Зарески, Эви Мальтальяти---Описание: Классическая история Гомера о подвигах и приключениях древнегреческого героя Одиссея во время его возвращения домой к жене Пенелопе после Троянской войны. Какие только испытания не выпали на долю Одиссея — его пытались охмурить прелестные и возбужденные одинокие женщины, захватить в плен и порвать на куски громадные и безобразные циклопы, отравить коварные и беспощадные правители маленьких прибрежных средиземноморских государств. Но упрямый и бесстрашный Одиссей неумолимо и непреклонно «рвался на Запад», домой, к верной своей жене Пенелопе…
Занимает 90-е место по посещаемости среди зарубежных фильмов в советском кинопрокате.-- -Тип релиза: DVDRip-AVC
Контейнер: MKV
Видео кодек: H264 (AVC)
Аудио кодек: AC3 (Dolby Digital)
Видео: MPEG4 Video (H264), 1024x696, 29.97fps, 2700 Kbps
Аудио 1: Dolby AC3, 48000 Hz, 2ch, 192 kbps - Советский дубляж "Союзмультфильм"
Аудио 2: Dolby AC3, 48000 Hz, 2ch, 192 kbps - Многоголосый
Субтитры: Русские - VobSub
--Сэмпл

MediaInfo:

General
Unique ID : 196375578103519273630921866434437643376 (0x93BC8F84E58C0060BA276BD0E2BAFC70)
Complete name : F:DVDRip1954 Странствия Одиссея.mkv
Format : Matroska
Format version : Version 4 / Version 2
File size : 2.11 GiB
Duration : 1h 37mn
Overall bit rate : 3 088 Kbps
Encoded date : UTC 2014-10-10 09:59:08
Writing application : mkvmerge v7.1.0 ('Good Love') 32bit built on Jul 27 2014 12:59:18
Writing library : libebml v1.3.0 + libmatroska v1.4.1
DURATION : 01:37:20.190000000
NUMBER_OF_FRAMES : 1411
NUMBER_OF_BYTES : 1474591
_STATISTICS_WRITING_APP : mkvmerge v7.1.0 ('Good Love') 32bit built on Jul 27 2014 12:59:18
_STATISTICS_WRITING_DATE_UTC : 2014-10-10 09:59:08
_STATISTICS_TAGS : BPS DURATION NUMBER_OF_FRAMES NUMBER_OF_BYTES
Video
ID : 1
Format : AVC
Format/Info : Advanced Video Codec
Format profile : High@L4.1
Format settings, CABAC : Yes
Format settings, ReFrames : 7 frames
Codec ID : V_MPEG4/ISO/AVC
Bit rate : 2 700 Kbps
Width : 1 024 pixels
Height : 696 pixels
Display aspect ratio : 3:2
Frame rate mode : Variable
Original frame rate : 29.970 fps
Color space : YUV
Chroma subsampling : 4:2:0
Bit depth : 8 bits
Scan type : Progressive
Bits/(Pixel*Frame) : 0.126
Title : 1954 Странствия Одиссея / Rip by renta23
Writing library : x264 core 125 r2208 d9d2288
Encoding settings : cabac=1 / ref=8 / deblock=1:-1:-1 / analyse=0x3:0x133 / me=umh / subme=11 / psy=1 / psy_rd=1.15:0.25 / mixed_ref=1 / me_range=24 / chroma_me=1 / trellis=2 / 8x8dct=1 / cqm=0 / deadzone=21,11 / fast_pskip=0 / chroma_qp_offset=-4 / threads=12 / lookahead_threads=2 / sliced_threads=0 / nr=0 / decimate=1 / interlaced=0 / bluray_compat=0 / constrained_intra=0 / bframes=6 / b_pyramid=1 / b_adapt=2 / b_bias=0 / direct=3 / weightb=1 / open_gop=0 / weightp=2 / keyint=250 / keyint_min=25 / scenecut=40 / intra_refresh=0 / rc_lookahead=50 / rc=2pass / mbtree=1 / bitrate=2700 / ratetol=1.0 / qcomp=0.60 / qpmin=0 / qpmax=69 / qpstep=4 / cplxblur=20.0 / qblur=0.5 / ip_ratio=1.40 / aq=2:1.00
Language : Italian
Default : Yes
Forced : No
Audio #1
ID : 2
Format : AC-3
Format/Info : Audio Coding 3
Mode extension : CM (complete main)
Format settings, Endianness : Big
Codec ID : A_AC3
Duration : 1h 37mn
Bit rate mode : Constant
Bit rate : 192 Kbps
Channel(s) : 2 channels
Channel positions : Front: L R
Sampling rate : 48.0 KHz
Bit depth : 16 bits
Compression mode : Lossy
Stream size : 134 MiB (6%)
Title : Советский дубляж "Союзмультфильм"
Language : Russian
Default : Yes
Forced : No
Audio #2
ID : 3
Format : AC-3
Format/Info : Audio Coding 3
Mode extension : CM (complete main)
Format settings, Endianness : Big
Codec ID : A_AC3
Duration : 1h 37mn
Bit rate mode : Constant
Bit rate : 192 Kbps
Channel(s) : 2 channels
Channel positions : Front: L R
Sampling rate : 48.0 KHz
Bit depth : 16 bits
Compression mode : Lossy
Stream size : 134 MiB (6%)
Title : Многоголосый
Language : Russian
Default : No
Forced : No
Text
ID : 4
Format : VobSub
Muxing mode : zlib
Codec ID : S_VOBSUB
Codec ID/Info : The same subtitle format used on DVDs
Language : Russian
Default : Yes
Forced : No
Menu
00:00:00.080 : en:Chapter 01
00:02:09.680 : en:Chapter 02
00:09:52.880 : en:Chapter 03
00:12:01.040 : en:Chapter 04
00:21:56.720 : en:Chapter 05
00:27:22.160 : en:Chapter 06
00:30:14.000 : en:Chapter 07
00:31:36.560 : en:Chapter 08
00:39:13.040 : en:Chapter 09
00:48:11.120 : en:Chapter 10
00:54:26.960 : en:Chapter 11
00:58:43.920 : en:Chapter 12
01:06:22.800 : en:Chapter 13
01:13:42.000 : en:Chapter 14
01:15:32.400 : en:Chapter 15
01:18:33.840 : en:Chapter 16
01:23:29.040 : en:Chapter 17
01:26:23.280 : en:Chapter 18
01:28:54.000 : en:Chapter 19
01:32:59.760 : en:Chapter 20

Скриншоты:

-
[Торрент-статистика]
[Профиль]  [ЛС] 
Показать сообщения:    
Ответить на тему

Текущее время: Сегодня 16:13

Часовой пояс: GMT + 4



Вы не можете начинать темы
Вы не можете отвечать на сообщения
Вы не можете редактировать свои сообщения
Вы не можете удалять свои сообщения
Вы не можете голосовать в опросах
Вы не можете прикреплять файлы к сообщениям
Вы не можете скачивать файлы