Дядя Адольф, по прозвищу Фюрер / Zio Adolfo, in arte Führer (Франко Кастеллано, Джузеппе Моччиа) [1978, Комедия, DVDRip-AVC]

Ответить на тему
 
Автор
Сообщение

diim ®

Пол:

Стаж: 1 год 10 месяцев

Сообщений: 1033

Репутация: 112 [+] [-]

Пост 25-Дек-2011 10:45

[Цитировать] 

Дядя Адольф, по прозвищу Фюрер / Zio Adolfo, in arte Führer
Год выпуска: 1978
Страна: Италия
Жанр: Комедия
Продолжительность: 01:29:11
Перевод: Профессиональный (двухголосый закадровый) + Оригинальная звуковая дорожка
Субтитры: Нет-Режиссёр: Франко Кастеллано, Джузеппе Моччиа
Сценарист: Франко Кастеллано, Джузеппе Моччиа
Продюсер: Лучано Мартино, Ренато Джабони
Оператор: Джанкарло Феррандо
Композитор: Карло Рустикелли
В ролях: Адриано Челентано,Клаудио Бигальи,Франсуа Бастьен,Джузеппе Диаманти,Паола Орефиче,Дэна Девин,Дино Эмануэлли,Джузеппе Кастеллано,Пьетро Чеккарелли-Описание: Действие фильма происходит в Германии времён становления фашизма и прихода к власти Гитлера. Фильм в жанре эксцентричной комедии рассказывает историю о двух братьях-близнецах. Один из них по имени Герман является фокусником и приближённым Гитлера. Другой - анархист и антифашист Густав, который пытается совершить покушение на фюрера.-Мировая премьера: 28 сентября 1978-Качество: DVDRip-AVC
Формат: MKV
Видео кодек: AVC
Аудио кодек: AC3
Видео: 720х576@1024x576 25 fps 2.4 mb|s
Аудио #1: 2.0 @ 128 kbps 48 kHz [Профессиональный (двухголосый закадровый)]
Аудио #2: 2.0 @ 192 kbps 48 kHz [Оригинальная звуковая дорожка]
Субтитры: Нет-Сэмпл

MediaInfo

General
Unique ID : 179943649205680736317063394554632187048 (0x875FE2E004C61F8EB7CBCF34F85FACA8)
Complete name : Дядя Адольф по прозвищу Фюрер.1978.mkv
Format : Matroska
Format version : Version 1
File size : 1.73 GiB
Duration : 1h 29mn
Overall bit rate : 2 779 Kbps
Encoded date : UTC 2009-08-03 14:05:24
Writing application : mkvmerge v2.2.0 ('Turn It On Again') built on Mar 4 2008 13:20:25
Writing library : libebml v0.7.7 + libmatroska v0.8.1
Video
ID : 1
Format : AVC
Format/Info : Advanced Video Codec
Format profile : High@L4.1
Format settings, CABAC : Yes
Format settings, ReFrames : 2 frames
Codec ID : V_MPEG4/ISO/AVC
Duration : 1h 29mn
Bit rate : 2 400 Kbps
Width : 1 024 pixels
Height : 576 pixels
Display aspect ratio : 16:9
Frame rate : 25.000 fps
Color space : YUV
Chroma subsampling : 4:2:0
Bit depth : 8 bits
Scan type : Progressive
Bits/(Pixel*Frame) : 0.163
Stream size : 1.46 GiB (84%)
Title : ice
Writing library : x264 core 65 r999kMod cc51047
Encoding settings : cabac=1 / ref=1 / deblock=0:0:0 / analyse=0x3:0x133 / me=hex / subme=6 / psy_rd=1.0:0.0 / mixed_ref=0 / me_range=16 / chroma_me=1 / trellis=0 / 8x8dct=1 / cqm=0 / deadzone=21,11 / chroma_qp_offset=-2 / threads=2 / thread_queue=2 / nr=0 / decimate=1 / mbaff=0 / bframes=3 / b_pyramid=0 / b_adapt=1 / b_bias=0 / direct=3 / wpredb=0 / keyint=250 / keyint_min=25 / scenecut=40(pre) / rc=abr / bitrate=2400 / ratetol=1.0 / qcomp=0.60 / qpmin=10 / qpmax=51 / qpstep=4 / ip_ratio=1.40 / pb_ratio=1.30 / aq=1:1.00
Language : Italian
Audio #1
ID : 2
Format : AC-3
Format/Info : Audio Coding 3
Mode extension : CM (complete main)
Codec ID : A_AC3
Duration : 1h 29mn
Bit rate mode : Constant
Bit rate : 192 Kbps
Channel(s) : 2 channels
Channel positions : Front: L R
Sampling rate : 48.0 KHz
Bit depth : 16 bits
Compression mode : Lossy
Stream size : 122 MiB (7%)
Language : Russian
Audio #2
ID : 3
Format : AC-3
Format/Info : Audio Coding 3
Mode extension : CM (complete main)
Codec ID : A_AC3
Duration : 1h 29mn
Bit rate mode : Constant
Bit rate : 192 Kbps
Channel(s) : 2 channels
Channel positions : Front: L R
Sampling rate : 48.0 KHz
Bit depth : 16 bits
Compression mode : Lossy
Stream size : 122 MiB (7%)
Language : Italian

Скриншоты

[Торрент-статистика]
[Профиль]  [ЛС] 
Показать сообщения:    
Ответить на тему

Текущее время: Сегодня 00:21

Часовой пояс: GMT + 4



Вы не можете начинать темы
Вы не можете отвечать на сообщения
Вы не можете редактировать свои сообщения
Вы не можете удалять свои сообщения
Вы не можете голосовать в опросах
Вы не можете прикреплять файлы к сообщениям
Вы не можете скачивать файлы