Челюсти / Jaws (Стивен Спилберг / Steven Spielberg) [1975, США, Ужасы, HDTVRip] AVO (Гаврилов, Живов) + original eng

Ответить на тему
 
Автор
Сообщение

anton966 ®

Пол:

Стаж: 4 года 11 месяцев

Сообщений: 24

Репутация: 0 [+] [-]

Пост 20-Дек-2011 12:49

[Цитировать] 

Челюсти / Jaws
Страна: США
Жанр: Ужасы
Год выпуска: 1975
Продолжительность: 02:03:55
Перевод: Авторский (одноголосый, закадровый) Андрей Гаврилов, Юрий Живов
Cубтитры: нет
Оригинальная аудиодорожка: Английская

Режиссер: Стивен Спилберг / Steven Spielberg
В ролях: Рой Шайдер / Roy Scheider, Ричард Дрейфусс / Richard Dreyfuss, Роберт Шоу / Robert Shaw, Лоррэйн Гэри / Lorraine Gary, Мюррей Хэмилтон / Murray Hamilton, Тед Гроссмэн / Ted Grossman, Сьюзан Бэклайни / Susan Backlinie, Карл Готтлиб / Carl Gottlieb, Джонатан Филли / Jonathan Filley, Джеффри Крэймер / Jeffrey Kramer
Описание: Когда на экраны вышла экранизация бестселлера Питера Бенчли в постановке режиссера Стивена Спилберга, мир в одночасье изменился навсегда. Миллионы людей испугались по-настоящему, снова пошли на картину и посоветовали сходить всем своим знакомым. "Челюсти" стали первым фильмом, собравшим в прокате Америки магическую сумму в сто миллионов долларов.
Фильм великого Спилберга прошел проверку временем и выстоял, похоронив тысячи киноподделок на эту же тему. До сих пор при звуках, теперь уже ставшей классической, музыки Джона Уильямса у многих людей волосы встают дыбом, и всплывают из подсознания жуткие картины, созданные невероятно талантливым режиссером. Теперь пришло время и Вам отправиться в роковое путешествие на бескрайние просторы океана, где вместе с тремя героями этого фильма Вас ждет встреча с огромной и безжалостной белой смертью.

Доп. информация: Рип сделан с собранного HDTVRip'а на основе скачанного исходника, спасибо Nightmare564. Дорожка с переводом Гаврилова с "чистого голоса" заново сделана под релиз. За голос спасибо dunhill200!
Качество видео: HDTVRip
Формат видео: AVI
Видео: 720x304 (2.37:1), 23.976 fps, XviD build 64 ~1627 kbps avg, 0.31 bit/pixel
Аудио#1: 48 kHz, AC3 Dolby Digital, 2/0 (L,R) ch, ~192.00 kbps avg - Гаврилов
Аудио#2: 48 kHz, AC3 Dolby Digital, 2/0 (L,R) ch, ~192.00 kbps avg - Живов
Аудио#3: 48 kHz, AC3 Dolby Digital, 2/0 (L,R) ch, ~192.00 kbps avg - Оригинальная

MediaInfo

Общее
Полное имя : D:\Мои документы\Кинофильмы\Кино\Мои раздачи (незаболваненные)\Jaws (Gavrilov, Zhivov, Eng) (HDTVRip) by A.P..avi
Формат : AVI
Формат/Информация : Audio Video Interleave
Размер файла : 1,92 Гбайт
Продолжительность : 2 ч. 3 м.
Общий поток : 2224 Кбит/сек
Программа кодирования : VirtualDubMod 1.5.10.3 | www.virtualdub-fr.org || (build 2550/release)
Библиотека кодирования : VirtualDubMod build 2550/release
Видео
Идентификатор : 0
Формат : MPEG-4 Visual
Профиль формата : Advanced Simple@L5
Параметр BVOP формата : 2
Параметр QPel формата : Нет
Параметр GMC формата : Без точки перехода
Параметр матрицы формата : Выборочная
Идентификатор кодека : XVID
Идентификатор кодека/Подсказка : XviD
Продолжительность : 2 ч. 3 м.
Битрейт : 1629 Кбит/сек
Ширина : 720 пикселей
Высота : 304 пикселя
Соотношение сторон : 2,35:1
Частота кадров : 23,976 кадра/сек
Цветовое пространство : YUV
Субдискретизация насыщенности : 4:2:0
Битовая глубина : 8 бит
Тип развёртки : Прогрессивная
Метод сжатия : С потерями
Бит/(Пиксели*Кадры) : 0.310
Размер потока : 1,41 Гбайт (73%)
Библиотека кодирования : XviD 64
Аудио #1
Идентификатор : 1
Формат : AC-3
Формат/Информация : Audio Coding 3
Расширение режима : CM (complete main)
Идентификатор кодека : 2000
Продолжительность : 2 ч. 3 м.
Вид битрейта : Постоянный
Битрейт : 192 Кбит/сек
Каналы : 2 канала
Расположение каналов : Front: L R
Частота : 48,0 КГц
Битовая глубина : 16 бит
Метод сжатия : С потерями
Размер потока : 170 Мбайт (9%)
Выравнивание : Разделение по промежуткам
Продолжительность промежутка : 42 мс. (1,00 видеокадр)
Время предзагрузки промежутка : 500 мс.
Аудио #2
Идентификатор : 2
Формат : AC-3
Формат/Информация : Audio Coding 3
Расширение режима : CM (complete main)
Идентификатор кодека : 2000
Продолжительность : 2 ч. 3 м.
Вид битрейта : Постоянный
Битрейт : 192 Кбит/сек
Каналы : 2 канала
Расположение каналов : Front: L R
Частота : 48,0 КГц
Битовая глубина : 16 бит
Метод сжатия : С потерями
Размер потока : 170 Мбайт (9%)
Выравнивание : Разделение по промежуткам
Продолжительность промежутка : 42 мс. (1,00 видеокадр)
Время предзагрузки промежутка : 500 мс.
Аудио #3
Идентификатор : 3
Формат : AC-3
Формат/Информация : Audio Coding 3
Расширение режима : CM (complete main)
Идентификатор кодека : 2000
Продолжительность : 2 ч. 3 м.
Вид битрейта : Постоянный
Битрейт : 192 Кбит/сек
Каналы : 2 канала
Расположение каналов : Front: L R
Частота : 48,0 КГц
Битовая глубина : 16 бит
Метод сжатия : С потерями
Размер потока : 170 Мбайт (9%)
Выравнивание : Разделение по промежуткам
Продолжительность промежутка : 42 мс. (1,00 видеокадр)
Время предзагрузки промежутка : 500 мс.

Скриншоты


[Торрент-статистика]
[Профиль]  [ЛС] 
Показать сообщения:    
Ответить на тему

Текущее время: Сегодня 14:46

Часовой пояс: GMT + 4



Вы не можете начинать темы
Вы не можете отвечать на сообщения
Вы не можете редактировать свои сообщения
Вы не можете удалять свои сообщения
Вы не можете голосовать в опросах
Вы не можете прикреплять файлы к сообщениям
Вы не можете скачивать файлы