9 1/2 недель / Девять с половиной недель / Nine 1/2 Weeks (Эдриан Лайн / Adrian Lyne) [1986, драма, мелодрама, эротика, DVDRip] Dub + Original

Ответить на тему
 
Автор
Сообщение

awk05 ®

Пол:

Стаж: 4 года 5 месяцев

Сообщений: 1352

Репутация: 275 [+] [-]

Откуда: Западная Украина Ривне

Пост 17-Янв-2014 07:38

[Цитировать] 

--9 1/2 недель / Девять с половиной недель / Nine 1/2 Weeks-- Год выпуска: 1986
Выпущено: США Metro-Goldwyn-Mayer
Продолжительность: 01:56:51
Жанр: драма, мелодрама, эротика
Перевод: Профессиональный (полное дублирование)
+ Оригинальная звуковая дорожка
Cубтитры: нет--Режиссер: Эдриан Лайн / Adrian Lyne--В ролях: Ким Бейсингер /Элизабет , Микки Рурк / Джон, Маргарет Уиттон / Молли, Дэвид Маргулис / Харви, Кристин Барански / Тиа, Карен Янг / Сью, Уильям Де Акутис / Тед--О фильме: Название фильма соответствует продолжительности взаимоотношений между инвестором Уолл Стрит Джоном Греем (его играет Микки Рурк) и разведённой сотрудницей картинной галереи Элизабет МакГроу (Ким Бейсингер). Они встретились в Нью-Йорке.
Они часто пробуют разнообразные сексуальные и эротические действия, включая сцену, в которой Джон проводит по телу Элизабет льдом, завязав ей перед этим глаза; сцену, в которой Джон кормит закрывшую глаза Элизабет с ложечки разными видами сладостей; сцену, в которой пара занимается сексом на лестнице; и известную сцену стриптиза Элизабет под песню Рэнди Ньюмана «You Can Leave Your Hat On» в исполнении Джо Кокера.
Фильм описывает восходящую спираль сексуальных отношений по мере того, как Джон толкает границы восприятия Элизабет в направлении эмоционального срыва. Он часто манипулирует ею, получая то, чего хочет во время секса, и порой злоупотребляет, зная, что она не сможет этому противостоять. Фильм наполнен символизмом и метафорами. Например, пойманная и съеденная рыба используется на протяжении фильма в качестве символа эмоционального состояния Элизабет.--Качество: DVDRip
Формат: AVI
Видео кодек: XviD
Аудио кодек: AC3
Видео: 720x384 (1.85:1), 25,000 кадра/сек, 2110 Кбит/сек,0.305 Бит/(Пиксели*Кадры)
Аудио 1: 6 каналов Front: L C R, Side: L R, LFE, 48,0 КГц, 448 Кбит/сек
Аудио 2: 2 канала Front: L R, 48,0 КГц, 192 Кбит/сек-- --

MediaInfo

Общее
Полное имя : E:\Films\9 с половиной недель\9_s_polovinoy_nedel'_DVDRip_[torrents.ru]_by_Scarabey.avi
Формат : AVI
Формат/Информация : Audio Video Interleave
Профиль формата : OpenDML
Размер файла : 2,17 Гбайт
Продолжительность : 1 ч. 52 м.
Общий поток : 2768 Кбит/сек
Программа кодирования : VirtualDubMod 1.6.0.0 SURROUND (build 2560/release)
Библиотека кодирования : VirtualDubMod build 2560/release
Видео
Идентификатор : 0
Формат : MPEG-4 Visual
Профиль формата : Advanced Simple@L5
Параметр BVOP формата : 1
Параметр QPel формата : Нет
Параметр GMC формата : Без точки перехода
Параметр матрицы формата : Выборочная
Идентификатор кодека : XVID
Идентификатор кодека/Подсказка : XviD
Продолжительность : 1 ч. 52 м.
Битрейт : 2110 Кбит/сек
Ширина : 720 пикселей
Высота : 384 пикселя
Соотношение сторон : 1,85:1
Частота кадров : 25,000 кадров/сек
Цветовое пространство : YUV
Субдискретизация насыщенности : 4:2:0
Битовая глубина : 8 бит
Тип развёртки : Прогрессивная
Метод сжатия : С потерями
Бит/(Пиксели*Кадры) : 0.305
Размер потока : 1,65 Гбайт (76%)
Библиотека кодирования : XviD 1.2.1 (UTC 2008-12-04)
Аудио #1
Идентификатор : 1
Формат : AC-3
Формат/Информация : Audio Coding 3
Расширение режима : CM (complete main)
Параметр Endianness формата : Big
Идентификатор кодека : 2000
Продолжительность : 1 ч. 52 м.
Вид битрейта : Постоянный
Битрейт : 448 Кбит/сек
Каналы : 6 каналов
Расположение каналов : Front: L C R, Side: L R, LFE
Частота : 48,0 КГц
Битовая глубина : 16 бит
Метод сжатия : С потерями
Размер потока : 360 Мбайт (16%)
Выравнивание : Разделение по промежуткам
Продолжительность промежутка : 40 мс. (1,00 видеокадр)
Время предзагрузки промежутка : 500 мс.
Аудио #2
Идентификатор : 2
Формат : AC-3
Формат/Информация : Audio Coding 3
Профиль формата : Dolby Digital
Расширение режима : CM (complete main)
Параметр Endianness формата : Big
Идентификатор кодека : 2000
Продолжительность : 1 ч. 52 м.
Вид битрейта : Постоянный
Битрейт : 192 Кбит/сек
Каналы : 2 канала
Расположение каналов : Front: L R
Частота : 48,0 КГц
Битовая глубина : 16 бит
Метод сжатия : С потерями
Размер потока : 154 Мбайт (7%)
Выравнивание : Соединение по промежуткам
Продолжительность промежутка : 40 мс. (1,00 видеокадр)
Время предзагрузки промежутка : 512 мс.

_________________
[Торрент-статистика]
[Профиль]  [ЛС] 
Показать сообщения:    
Ответить на тему

Текущее время: Сегодня 00:18

Часовой пояс: GMT + 4



Вы не можете начинать темы
Вы не можете отвечать на сообщения
Вы не можете редактировать свои сообщения
Вы не можете удалять свои сообщения
Вы не можете голосовать в опросах
Вы не можете прикреплять файлы к сообщениям
Вы не можете скачивать файлы