Маска / Mask (Питер Богданович) [1985 г., драма, DVDRip]

Ответить на тему
 
Автор
Сообщение

3232fox ®

Пол:

Стаж: 3 года 9 месяцев

Сообщений: 614

Репутация: 423 [+] [-]

Откуда: Крым,Россия

Пост 14-Дек-2013 01:12

[Цитировать] 

-Маска / Mask--Год выпуска: 1985
Страна: США
Жанр: драма
Продолжительность: 01:54:49
Перевод: Профессиональный (многоголосый, закадровый)--Режиссер: Питер Богданович--В ролях: Шер,Сэм Эллиот,Эрик Штольц,Эстелл Гетти,Ричард А.Дайсарт,Лора Дерн--Описание: Рокки Деннис — шестнадцатилетний парень, страдающий редкой болезнью костей, превратившей его лицо в маску, чем-то похожую на львиную и вдвое больше обычного лица. Ко всему прочему, болезнь эта неизлечима. Но Рокки из той редкой породы людей, которые ставят на жизнь в любом положении. Рокки умен, наделен добрым, огромным сердцем, он не обозлен на мир, где при первом же взгляде, его ожидает насмешка или отвращение. Он прекрасно учится и легко добивается дружбы и уважения одноклассников. Живет он с матерью — хиппующей рокершей Расти, красивой, отвязной, любящей, пьющей, злоупотребляющей наркотиками, а остальные члены его семьи — это братья-рокеры из банды мотоциклистов, в которой выделяется обаятельный усатый красавец Сэм Эллиотт, возможно, его отец.-- --Тип релиза: DVDRip
Контейнер: AVI
Видео кодек: XviD
Аудио кодек: AC3 (Dolby Digital)
Видео: 640x368, 25 кадров/сек, 1794 кбит/сек
Аудио: AC3 192 кбит/сек--

Скриншоты

MI

General
Complete name : G:\видео\Maska.avi
Format : AVI
Format/Info : Audio Video Interleave
File size : 1.47 GiB
Duration : 1h 54mn
Overall bit rate : 1 837 Kbps
Writing application : VirtualDubMod 1.5.10.2 (build 2540/release)
Writing library : VirtualDubMod build 2540/release
Video
ID : 0
Format : MPEG-4 Visual
Format settings, BVOP : No
Format settings, QPel : No
Format settings, GMC : No warppoints
Format settings, Matrix : Default (H.263)
Codec ID : DX50
Codec ID/Hint : DivX 5
Duration : 1h 54mn
Bit rate : 1 434 Kbps
Width : 640 pixels
Height : 368 pixels
Display aspect ratio : 16:9
Frame rate : 25.000 fps
Color space : YUV
Chroma subsampling : 4:2:0
Bit depth : 8 bits
Scan type : Progressive
Compression mode : Lossy
Bits/(Pixel*Frame) : 0.244
Stream size : 1.15 GiB (78%)
Writing library : DivX 6.2.2 (UTC 2006-04-26)
Audio #1
ID : 1
Format : MPEG Audio
Format version : Version 1
Format profile : Layer 3
Mode : Joint stereo
Mode extension : MS Stereo
Codec ID : 55
Codec ID/Hint : MP3
Duration : 1h 54mn
Bit rate mode : Constant
Bit rate : 128 Kbps
Channel(s) : 2 channels
Sampling rate : 44.1 KHz
Compression mode : Lossy
Video delay : 26ms
Stream size : 105 MiB (7%)
Alignment : Aligned on interleaves
Writing library : LAME3.92
Audio #2
ID : 2
Format : AC-3
Format/Info : Audio Coding 3
Mode extension : CM (complete main)
Codec ID : 2000
Duration : 1h 54mn
Bit rate mode : Constant
Bit rate : 192 Kbps
Channel(s) : 2 channels
Channel positions : Front: L R
Sampling rate : 48.0 KHz
Bit depth : 16 bits
Compression mode : Lossy
Stream size : 158 MiB (10%)
Alignment : Aligned on interleaves
[Торрент-статистика]
[Профиль]  [ЛС] 
Показать сообщения:    
Ответить на тему

Текущее время: Сегодня 01:49

Часовой пояс: GMT + 4



Вы не можете начинать темы
Вы не можете отвечать на сообщения
Вы не можете редактировать свои сообщения
Вы не можете удалять свои сообщения
Вы не можете голосовать в опросах
Вы не можете прикреплять файлы к сообщениям
Вы не можете скачивать файлы