Совершенный Человек-Паук / Великий Человек-Паук / Ultimate Spider-Man / Сезон: 2 / Серии: 1-26 (26) (Тим Элдред, Алекс Сото) [2013 г., Мультсериал, приключения, экранизация комиксов, комедия, WEB-DL 720p] MVO + Original

Ответить на тему
 
Автор
Сообщение

kaliasa ®

Пол:

Стаж: 4 года 8 месяцев

Сообщений: 113

Репутация: 84 [+] [-]

Пост 18-Апр-2013 23:50

[Цитировать] 

-Оригинальное название: Ultimate Spider-Man
Русское название: Совершенный Человек-Паук
Год выпуска: 2013
Страна: США
Жанр: Мультсериал, приключения, экранизация комиксов, комедия
Продолжительность: 20 минут [серия]
Перевод: Любительский (многоголосый, закадровый) р/г SerGoLeOne
Сэмпл: скачать
Субтитры: нет-Производство: MARVEL Animated Studios-Режиссер: Тим Элдред, Алекс Сото / Tim Eldred, Alex Soto-Перевод: Александр Митраков, Васенков-Роли озвучивали: Дрейк Белл, Стивен Уэбер, Дж.К. Симмонс, Чи МакБрайд и другие-Работа со звуком: SerGoLeOne-Описание: «Совершенный Человек-Паук» - новая интерпретация приключений знаменитого супергероя Человека-паука из комиксов MARVEL, но никак не связанная с комиксом Ultimate Spider-man (кроме внешности персонажей). Второй сезон начинается там, где закончился первый. Вся команда Человека-паука переезжает жить в дом Тёти Мэй, так как вертоносец Щ.И.Т.а пострадал после стычки с Зеленым Гоблином. В этом сезоне Человек-Паук встретится с новыми злодеями! Такими, как: Ящер, Электро, а также вас ждёт встреча со Зловещей Шестёркой. К сожалению в этом сезоне тоже есть "очень смешные вставки", но их стало чуть меньше и рисовка стала более серьезнее. (С) SerGoLeOne- --

Роли дублировали:

Денис Коровин - Питер Паркер (Человек-Паук),
Михаил Кшиштовский - Нова,
Провайдер Ти Эйч - Железный Кулак,
Денис Строев - Доктор Коннорс (Ящер), Силач, Джей Джона, Рино,
Сергей Пономарёв - Электро, Соколиный Глаз,
Дмитрий Лунев - Агент Коулсон,
Вячеслав Козлов - Ник Фьюри, второстепенные,
Олег Варганов - автор, Доктор Осьминог,
Михаил Шорыгин - Алекс,
Владимир Курдов - Крэйвэн-Охотник,
Ника Стригунова - все женские роли.
--Тип релиза: HDTVRip
Формат: MKV
Видео кодек: h264
Аудио кодек: AC3
Видео: MPEG4 Video (H264) 1280x720 23.97fps ~3800Kbps
Аудио:
  • русская дорожка: Dolby AC3 48000Hz stereo 192Kbps,
  • оригинал: Dolby AC3 48000Hz 48000Hz 6ch 384Kbps-

Media Info

Код:
General
Unique ID                                : 200951214062977528571846193143419358668 (0x972DCBCA1880575F93C3B11AE3EDCDCC)
Complete name                            : \Ultimate Spider-Man. Season 2 (WEB-DL l 720p l SerGoLeOne)\01. The Lizard.mkv
Format                                   : Matroska
Format version                           : Version 1
File size                                : 698 MiB
Duration                                 : 22mn 8s
Overall bit rate                         : 4 411 Kbps
Encoded date                             : UTC 2013-01-17 09:12:24
Writing application                      : mkvmerge v2.3.0 ('Freak U') built on Sep  8 2008 18:32:16
Writing library                          : libebml v0.7.7 + libmatroska v0.8.1
Video
ID                                       : 1
Format                                   : AVC
Format/Info                              : Advanced Video Codec
Format profile                           : High@L3.1
Format settings, CABAC                   : No
Format settings, ReFrames                : 2 frames
Codec ID                                 : V_MPEG4/ISO/AVC
Duration                                 : 22mn 8s
Bit rate                                 : 3 748 Kbps
Width                                    : 1 280 pixels
Height                                   : 720 pixels
Display aspect ratio                     : 16:9
Frame rate mode                          : Constant
Frame rate                               : 23.976 fps
Color space                              : YUV
Chroma subsampling                       : 4:2:0
Bit depth                                : 8 bits
Scan type                                : Progressive
Bits/(Pixel*Frame)                       : 0.170
Stream size                              : 593 MiB (85%)
Language                                 : English
Default                                  : Yes
Forced                                   : No
Color primaries                          : BT.709
Transfer characteristics                 : BT.709
Matrix coefficients                      : BT.709
Audio #1
ID                                       : 2
Format                                   : AC-3
Format/Info                              : Audio Coding 3
Mode extension                           : CM (complete main)
Format settings, Endianness              : Big
Codec ID                                 : A_AC3
Duration                                 : 22mn 8s
Bit rate mode                            : Constant
Bit rate                                 : 192 Kbps
Channel(s)                               : 2 channels
Channel positions                        : Front: L R
Sampling rate                            : 48.0 KHz
Bit depth                                : 16 bits
Compression mode                         : Lossy
Stream size                              : 30.4 MiB (4%)
Title                                    : vk.com/sergoleone
Language                                 : Russian
Default                                  : Yes
Forced                                   : No
Audio #2
ID                                       : 3
Format                                   : AC-3
Format/Info                              : Audio Coding 3
Mode extension                           : CM (complete main)
Format settings, Endianness              : Big
Codec ID                                 : A_AC3
Duration                                 : 22mn 8s
Bit rate mode                            : Constant
Bit rate                                 : 384 Kbps
Channel(s)                               : 6 channels
Channel positions                        : Front: L C R, Side: L R, LFE
Sampling rate                            : 48.0 KHz
Bit depth                                : 16 bits
Compression mode                         : Lossy
Stream size                              : 60.8 MiB (9%)
Title                                    : Original
Language                                 : English
Default                                  : No
Forced                                   : No
-

Список серий:

2 сезон:
01. The Lizard (Ящер)
02. Electro (Электро)
03. Rhino (Рино)
04. Kraven the Hunter (Крэйвэн-Охотник)
05. Hawkeye (Соколиный Глаз)
06. The Sinister Six (Зловещая шестёрка)
07. Spidah-Man (Человек-Павук)
08. Carnage (Карнадж)
09. House Arrest (Домашний арест)
10. The Man-Wolf (Человек-Волк)
11. Swarm (Рой)
12. Itsy Bitsy Spider-Man (Малышка-Паучишка)
13. Journey of the Iron Fist (Путешествие Железного Кулака)
14. The Incredible Spider-Hulk (Невероятный Пауко-Халк)
15. Ultimate Deadpool (Совершенный Дедпул)
16. Venom Bomb (Веномная бомба)
17. Guardians of the Galaxy (Стражи Галактики)
18. The Parent Trap (Родительская ловушка)
19. Stan By Me (Останься со Стэном)
20. Game Over (Конец игры)
21. Blade (Блэйд)
22. The Howling Commandos (Воющие коммандос)
23. Second Chance Hero (Второй шанс)
24. Sandman Returns (Возвращение Песочного Человека)
25. Return of the Sinister Six (Возвращение Зловещей Шестёрки)
26. Ultimate (Совершенный)

Скриншоты

Внимание! Раздача ведётся путём добавления новых серий!

Внимание! Раздача ведётся путём добавления новых серий; при каждом добавлении создётся новый торрент. Чтобы начать докачку новой серии, пользователям необходимо сделать следующее:
(1) остановить скачивание,
(2) удалить старый торрент у себя из клиента (старые серии удалять не надо),
(3) скачать новый торрент и запустить его у себя в клиенте вместо старого, при этом указать клиенту путь в старую папку куда и должно происходить скачивание новых серий.
Ваш клиент при этом должен произвести хеширование (проверку) старой папки (если не производит сам - помогите ему сделать это), и будет докачивать только те серии которых у вас ещё нет. Старые серии при этом не удаляются, а продолжают раздаваться!
Eсли вы уже удалили старые серии, то предотвратить повторную закачку старых серий можно, отжав галочку в соответсвующих местах при запуске нового торрента.


Последний раз редактировалось: kaliasa (2014-06-04 23:40), всего редактировалось 10 раз(а)
[Торрент-статистика]
[Профиль]  [ЛС] 

kaliasa ®

Пол:

Стаж: 4 года 8 месяцев

Сообщений: 113

Репутация: 84 [+] [-]

Пост 04-Июн-2014 23:42 (спустя 1 год 1 месяц)

[Цитировать] 

Торрент обновлен, скачайте по новой торрент.
Добавлены последние серии
[Торрент-статистика]
[Профиль]  [ЛС] 
Показать сообщения:    
Ответить на тему

Текущее время: Сегодня 16:31

Часовой пояс: GMT + 4



Вы не можете начинать темы
Вы не можете отвечать на сообщения
Вы не можете редактировать свои сообщения
Вы не можете удалять свои сообщения
Вы не можете голосовать в опросах
Вы не можете прикреплять файлы к сообщениям
Вы не можете скачивать файлы