Могучие морфы – рейнджеры силы / Mighty Morphin' Power Rangers / Сезон: 1 / Серии: 1-60 (60) (Теренс Х. Уинклесс, Дэвид Блит, Адриан Карр) [1993, фантастика, боевик, приключение, TVRip] DVO (2x2)

Ответить на тему
 
Автор
Сообщение

kaliasa ®

Пол:

Стаж: 4 года 8 месяцев

Сообщений: 113

Репутация: 84 [+] [-]

Пост 12-Дек-2012 22:21

[Цитировать] 

Могучие морфы – рейнджеры силы / Mighty Morphin' Power RangersГод выпуска: 1994
Страна: США, Япония
Жанр: фантастика, боевик, приключение
Продолжительность: 00:20:00
Перевод: Профессиональный двухголосый закадровый - 2х2
Русские субтитры: нет
Субтитры: отсутствуют
Режиссер: Теренс Х. Уинклесс, Дэвид Блит, Адриан Карр
В ролях: Остин Сэнт Джон (Джейсон/Красный рейнджер), Туи Транг (Трини/Жёлтый рейнджер), Уолтер Джонс (Зак/Чёрный рейнджер), Эми Джо Джонсон (Кимберли/Розовый рейнджер), Дэвид Йост (Билли/Голубой рейнджер), Пол Шриер (Толстый), Джейсон Нарви (Тонкий), Дэвид Филдинг (Зордон) и другие.
Описание: Коварная колдунья Рита освобождается из интергалактической тюрьмы, в которую ее поместил Зордан. Злодейка собирается покорить Вселенную и поработить Землю с помощью своих монстров и приспешников. Для борьбы с королевой зла Зордан выбирает пятерых смелых и отважных подростков: Джейсона, Зака, Кимберли, Билли и Трини. С помощью преобразователей ребята могут трансформироваться в пятерку Могучих Рейнджеров, способных управлять Зордами, боевыми машинами. Джейсон, сильный и отважный, владеет Зордом-Тиранозавром, Зак, ловкий и смелый, распоряжается Зордом-Мастодонтом, Кимберли, изящной и скромной, достается Зорд-Птеродактель, Билли – мудрый и настойчивый управляет Зордом-Трицератепсом, Трини, бесстрашной и смелой, подчиняется Зорд-Саблезубый Тигр. В трудный момент ребята могут объединиться, применив силу Динозордов и составить могучего Мегазорда.
Сэмпл
Тип релиза: TVRip
Контейнер: AVI
Видео кодек: XviD
Аудио кодек: MP3
Видео: XviD, 720х536, 25,000 fps, 3438 Кбит/сек, 0.350 bit/pixel
Аудио: MP3, 48,0 КГц, 2 канала, 256 Кбит/сек

MI

Общее
Полное имя : D:\Фильмы\Mighty Morphin Power Rangers (1 season)\Могучие Морфины Рейнджеры Силы.s01.e02.Дай пять.(RUS 2х2).avi
Формат : AVI
Формат/Информация : Audio Video Interleave
Размер файла : 521 Мбайт
Продолжительность : 19 м.
Общий поток : 3704 Кбит/сек
Программа кодирования : VirtualDubMod 1.5.10.2 (build 2540/release)
Библиотека кодирования : VirtualDubMod build 2540/release
Видео
Идентификатор : 0
Формат : MPEG-4 Visual
Профиль формата : Advanced Simple@L5
Параметр BVOP формата : 1
Параметр QPel формата : Нет
Параметр GMC формата : Без точки перехода
Параметр матрицы формата : Default (H.263)
Идентификатор кодека : XVID
Идентификатор кодека/Подсказка : XviD
Продолжительность : 19 м.
Битрейт : 3438 Кбит/сек
Ширина : 720 пикселей
Высота : 536 пикселей
Соотношение сторон : 4:3
Частота кадров : 25,000 кадров/сек
Цветовое пространство : YUV
Субдискретизация насыщенности : 4:2:0
Битовая глубина : 8 бит
Тип развёртки : Прогрессивная
Метод сжатия : С потерями
Бит/(Пиксели*Кадры) : 0.356
Размер потока : 483 Мбайт (93%)
Библиотека кодирования : XviD 1.2.1 (UTC 2008-12-04)
Аудио
Идентификатор : 1
Формат : MPEG Audio
Версия формата : Version 1
Профиль формата : Layer 3
Режим : Joint stereo
Расширение режима : MS Stereo
Идентификатор кодека : 55
Идентификатор кодека/Подсказка : MP3
Продолжительность : 19 м.
Вид битрейта : Постоянный
Битрейт : 256 Кбит/сек
Каналы : 2 канала
Частота : 48,0 КГц
Метод сжатия : С потерями
Размер потока : 36,0 Мбайт (7%)
Выравнивание : Соединение по промежуткам
Продолжительность промежутка : 40 мс. (1,00 видеокадр)
Время предзагрузки промежутка : 504 мс.
Библиотека кодирования : LAME3.98r
Настройки программы : -m j -V 4 -q 2 -lowpass 19.7

Список Серий

1. Мусорные беглецы
2. Великолепная пятёрка
3. Быть одной командой
4. Проблемы с весом
5. Звуки музыки
6. Бой едой
7. Старшие сестры
8. А у нас супер глаз
9. Не лезь в бутылку
10. С днем рожденья Зак
11. Клоунада
12. Могучие Рейнджеры улетают
13. Мир дружба модам Вон
14. Не честная игра на высоте
15. Тёмный воин
16. Перемены мест
17. Зелёный и злой Часть 1
18. Зелёный и злой Часть 2
19. Зелёный и злой Часть 3
20. Зелёный и злой Часть 4
21. Зелёный и злой Часть 5
22. Проблемы с Шеллшок
23. Крохотный паук
24. Цветочная платформа
25. Ганг Хо!
26. Жизнь маскарад
27. Колесо неудач
28. Остров иллюзий: часть 1
29. Остров иллюзий: часть 2
30. Каменный метеор
31. Спокойствие Кимберли
32. Рождение звезды
33. Яишница!
34. Зелёная свеча: Часть 1
35. Зелёная свеча: Часть 2
36. Братья по разуму
37. Субботник
38. Кривое отражение
39. Судный день: Часть 1
40. Судный день: Часть 2
41. Семя зла
42. Поросёнок с сюрпризом
43. Рыбный день
44. Оригинальные игры
45. Кристалл кошмаров
46. Избавиться от Лока или сбежать
47. Эра медуз
48. Проклятие Богомола
49. Возвращение старого друга: Часть 1
50. Возвращение старого друга: Часть 2
51. Грамбл Би
52. Одна голова хорошо а две лучше
53. Пернатые игры
54. Пан или пропал
55. Ещё один шанс
56. Непримиримые трагедии
57. Вперед Ящеригатор
58. Футбольная лихорадка
59. Рейнджеры мутанты
60. Суп из устриц

Скриншоты

[Торрент-статистика]
[Профиль]  [ЛС] 
Показать сообщения:    
Ответить на тему

Текущее время: Сегодня 16:34

Часовой пояс: GMT + 4



Вы не можете начинать темы
Вы не можете отвечать на сообщения
Вы не можете редактировать свои сообщения
Вы не можете удалять свои сообщения
Вы не можете голосовать в опросах
Вы не можете прикреплять файлы к сообщениям
Вы не можете скачивать файлы