Трансформеры: Прайм / Transformers Prime (Дэвид Хартман, Тодд Ватерман, Винтон Хёк) (26 Серий) [2010 г., мультсериал, фантастика, WEB-DL 720p] DUB

Ответить на тему
 
Автор
Сообщение

kaliasa ®

Пол:

Стаж: 4 года 8 месяцев

Сообщений: 113

Репутация: 84 [+] [-]

Пост 04-Июл-2012 20:13

[Цитировать] 

Трансформеры: Прайм / Transformers PrimeГод выпуска: 2010
Страна: США, Япония
Жанр: мультсериал, фантастика
Перевод: Профессиональный (полное дублирование) [Первый канал]
Продолжительность: 26 х 00:22:00
Субтитры: нет
Режиссер: Дэвид Хартман, Тодд Ватерман, Винтон Хёк
В ролях: Питер Каллен, Сумали Монтано, Джеффри Комбс, Кевин Майкл Ричардсон, Фрэнк Уэлкер, Таня Гунади, Джошуа Китон, Энди Пессоа, Эрни Хадсон, Стивен Блум
Описание: Уверенные, что опасность миновала, автоботы, тем не менее, оставляют на Земле небольшую группу защитников под руководством Оптимуса Прайма. Предосторожность оказывается не напрасной — три года спустя Мегатрон объявляется снова и приносит с собой Тёмный Энергон, с помощью которого рассчитывает отомстить за прошлое поражение. Автоботы опять вынуждены взяться за оружие. Они подружились с несколькими земными подростками, и теперь команда роботов и людей сражается, чтобы защитить Землю от десептиконов.
СЕМПЛ
Семпл к мультсериалу Трансформеры: Прайм
Тип релиза: WEB-DL 720p
Контейнер: MKV
Видео кодек: H264 (AVC)
Аудио кодек: AC3 (Dolby Digital)
Видео: AVC, 1280x720, 23.976 fps ~4200 kbps
Аудио 1: AC3, 48 kHz, 2 ch, 192.00 kbps, [rus dub]
Аудио 2: AC3, 48 kHz, 6 ch, 384.00 kbps [eng]

Список серий

Эпизод 1: Darkness Rising: Part 1
Эпизод 2: Darkness Rising: Part 2
Эпизод 3: Darkness Rising: Part 3
Эпизод 4: Darkness Rising: Part 4
Эпизод 5: Darkness Rising: Part 5
Эпизод 6: Masters & Students
Эпизод 7: Scrapheap
Эпизод 8: Con Job
Эпизод 9: Convoy
Эпизод 10: Deus Ex Machina
Эпизод 11: Speed Metal
Эпизод 12: Predatory
Эпизод 13: Sick Mind
Эпизод 14: Out of His Head
Эпизод 15: Shadowzone
Эпизод 16: Operation: Breakdown
Эпизод 17: Crisscross
Эпизод 18: Metal Attraction
Эпизод 19: Rock Bottom
Эпизод 20: Partners
Эпизод 21: T.M.I.
Эпизод 22: Stronger, Faster
Эпизод 23: One Shall Fall
Эпизод 24: One Shall Rise: Part 1
Эпизод 25: One Shall Rise: Part 2
Эпизод 26: One Shall Rise: Part 3

Mi

General
Unique ID : 177342332756691633504883213806584206543 (0x856AE412706F0CE98A832CB9CBAC14CF)
Complete name :Transformers Prime [S01] (2010) WEB-DLRip 720p\Transformers_Prime.S01.E01[RUS.ENG].mkv
Format : Matroska
Format version : Version 2
File size : 759 MiB
Duration : 22mn 1s
Overall bit rate : 4 819 Kbps
Movie name : Transformers.Prime.S01E01.Darkness.Rising.Part.1.720p.WEB.DL.DD5.1.AAC2.0.H264.BluZilla.mkv 6089
Encoded date : UTC 2012-01-08 15:14:07
Writing application : mkvmerge v5.1.0 ('And so it goes') built on Nov 28 2011 23:58:28
Writing library : libebml v1.2.3 + libmatroska v1.3.0
Video #1
ID : 1
Format : AVC
Format/Info : Advanced Video Codec
Format profile : High@L3.1
Format settings, CABAC : No
Format settings, ReFrames : 2 frames
Codec ID : V_MPEG4/ISO/AVC
Duration : 22mn 1s
Bit rate : 4 147 Kbps
Width : 1 280 pixels
Height : 720 pixels
Display aspect ratio : 16:9
Frame rate : 23.976 fps
Color space : YUV
Chroma subsampling : 4:2:0
Bit depth : 8 bits
Scan type : Progressive
Bits/(Pixel*Frame) : 0.188
Stream size : 653 MiB (86%)
Language : English
Color primaries : BT.709-5, BT.1361, IEC 61966-2-4, SMPTE RP177
Transfer characteristics : BT.709-5, BT.1361
Matrix coefficients : BT.709-5, BT.1361, IEC 61966-2-4 709, SMPTE RP177
Audio #2
ID : 2
Format : AC-3
Format/Info : Audio Coding 3
Mode extension : CM (complete main)
Muxing mode : Header stripping
Codec ID : A_AC3
Duration : 22mn 1s
Bit rate mode : Constant
Bit rate : 192 Kbps
Channel(s) : 2 channels
Channel positions : Front: L R
Sampling rate : 48.0 KHz
Bit depth : 16 bits
Compression mode : Lossy
Stream size : 30.2 MiB (4%)
Language : Russian
Audio #3
ID : 3
Format : AC-3
Format/Info : Audio Coding 3
Mode extension : CM (complete main)
Muxing mode : Header stripping
Codec ID : A_AC3
Duration : 22mn 1s
Bit rate mode : Constant
Bit rate : 384 Kbps
Channel(s) : 6 channels
Channel positions : Front: L C R, Side: L R, LFE
Sampling rate : 48.0 KHz
Bit depth : 16 bits
Compression mode : Lossy
Stream size : 60.5 MiB (8%)
Language : English

Скриншоты

[Торрент-статистика]
[Профиль]  [ЛС] 
Показать сообщения:    
Ответить на тему

Текущее время: Сегодня 12:13

Часовой пояс: GMT + 4



Вы не можете начинать темы
Вы не можете отвечать на сообщения
Вы не можете редактировать свои сообщения
Вы не можете удалять свои сообщения
Вы не можете голосовать в опросах
Вы не можете прикреплять файлы к сообщениям
Вы не можете скачивать файлы