Совершенный Человек-Паук / Великий Человек-Паук / Ultimate Spider-Man / Сезон: 1 / Серии: 1-26 (26) (Тим Элдред, Алекс Сото) [2012 г., Мультсериал, приключения, экранизация комиксов, комедия, WEB-DL 720p] DUB (1-26) + MVO (1-10, 14)

Ответить на тему
 
Автор
Сообщение

kaliasa ®

Пол:

Стаж: 4 года 8 месяцев

Сообщений: 113

Репутация: 84 [+] [-]

Пост 01-Май-2012 14:53

[Цитировать] 

- - Русское название: Совершенный Человек-Паук
Оригинальное название: Ultimate Spider-Man
Год выпуска: 2012
Страна: США
Жанр: Мультсериал, приключения, экранизация комиксов, комедия
Продолжительность: 20 минут [серия]
Перевод:
  • Профессиональный (полное дублирование) Невафильм
  • Профессиональный (многоголосый, закадровый)
    Субтитры: нет
    Производство: MARVEL Animated Studios
    Режиссер: Тим Элдред, Алекс Сото / Tim Eldred, Alex Soto
    Роли озвучивали: Дрейк Белл, Стивен Уэбер, Дж.К. Симмонс, Чи МакБрайд и другие
    Описание: «Современный Человек-Паук» - новая интерпретация приключений знаменитого супергероя Человека-паука из комиксов MARVEL, премьера которого состоялась 1 апреля 2012 года. В один прекрасный день Ник Фьюри приходит к пауку и предлагает ему обучаться по его технике. Согласился ли он? Сами посмотрите!- -Перевод текста: Несмертельное оружие-Роли озвучивали:
    Marvel - Питер Паркер.
    Nika Lenina - Мэри Джейн, второстепенные.
    Ancord - Ник Фьюри, второстепенные.
    Oleg Varganov - Доктор Октавиус, Стэн Ли, Капкан.
    Mirohaha - Флэш Томпсон.
    Rise - Колдун.
    dexter - Люк Кейдж и другие.
    Психодозер - Нова.
    Несмертельное оружие - Агент Коулсон, Железный кулак.
    VO-Production - Норман Озборн, Гарри Озборн, Джей Джона Джеймсон, Доктор Дум и другие.
    Uncle Michael - Курт Коннорс, второстепенные.-Семпл
    -
    Тип релиза: WEB-DL-AVC
    Видео кодек: h264
    Формат: MKV
    Аудио кодек: AC3
    Видео: MPEG4 Video (H264) 1280x720 23.97fps ~3800Kbps
    Аудио:
    русская дорожки: Dolby AC3 48000Hz stereo 192Kbps,
    оригинал: Dolby AC3 48000Hz 48000Hz 6ch 384Kbps

Скриншоты

Список серий

01. Great Power (Великая Сила)
02. Great Responsibility (Великая Ответственность)
03. Doomed! (Обречённые)
04. Venom (Веном)
05. Flight of Iron Spider (Полёт Железного Паука)
06. Why I Hate Gym (Почему я ненавижу спортзал (физкультуру))
07. Exclusive (Эксклюзив)
08. Back in Black (Возвращение в чёрном)*
10. Freaky (Бред)
11. Веномус (Venomous)
12. Личное время (Me Time)
13. Стрендж (Strange)
14. В ажуре (Awesome)
15. Только ради вашего глаза (For Your Eye Only)
16. Жукомания (Beetle Mania)
17. Снежный день (Snow Day)
18. Погром (Damage)
19. Неприкаянный Халк (Home Sick Hulk)
20. Беги, хряк, беги (Run Pig Run)
21. Я - Человек-Паук (I Am Spider-Man)
22. Железный Осьминог (The Iron Octopus)
23. Не игрушка (Not a Toy)
24. Нападение Жука (The Attack of the Beetle)
25. Разоблачённый (Revealed)
26. Восхождение Гоблина (The Rise of the Goblin)

Mi

1 серия

C:\Совершенный Человек-Паук\Ultimate Spider-Man (WEB-DL l 720p l SerGoLeOne & Несмертельное оружие)\01. Great Power.mkv
General
Unique ID : 243933338219777184807640763642203073625 (0xB783DA2006B42B499F1DE1F28EBBEC59)
Complete name : C:\Совершенный Человек-Паук\Ultimate Spider-Man (WEB-DL l 720p l SerGoLeOne & Несмертельное оружие)\01. Great Power.mkv
Format : Matroska
Format version : Version 1
File size : 714 MiB
Duration : 22mn 14s
Overall bit rate : 4 488 Kbps
Encoded date : UTC 2012-04-20 18:12:03
Writing application : mkvmerge v2.3.0 ('Freak U') built on Sep 8 2008 18:32:16
Writing library : libebml v0.7.7 + libmatroska v0.8.1
Video #1
ID : 1
Format : AVC
Format/Info : Advanced Video Codec
Format profile : High@L3.1
Format settings, CABAC : No
Format settings, ReFrames : 2 frames
Codec ID : V_MPEG4/ISO/AVC
Duration : 22mn 14s
Bit rate : 3 823 Kbps
Width : 1 280 pixels
Height : 720 pixels
Display aspect ratio : 16:9
Frame rate : 23.976 fps
Color space : YUV
Chroma subsampling : 4:2:0
Bit depth : 8 bits
Scan type : Progressive
Bits/(Pixel*Frame) : 0.173
Stream size : 608 MiB (85%)
Language : English
Color primaries : BT.709-5, BT.1361, IEC 61966-2-4, SMPTE RP177
Transfer characteristics : BT.709-5, BT.1361
Matrix coefficients : BT.709-5, BT.1361, IEC 61966-2-4 709, SMPTE RP177
Audio #2
ID : 2
Format : AC-3
Format/Info : Audio Coding 3
Mode extension : CM (complete main)
Codec ID : A_AC3
Duration : 22mn 14s
Bit rate mode : Constant
Bit rate : 192 Kbps
Channel(s) : 2 channels
Channel positions : Front: L R
Sampling rate : 48.0 KHz
Bit depth : 16 bits
Compression mode : Lossy
Stream size : 30.5 MiB (4%)
Title : vk.com/sergoleone
Language : Russian
Audio #3
ID : 3
Format : AC-3
Format/Info : Audio Coding 3
Mode extension : CM (complete main)
Codec ID : A_AC3
Duration : 22mn 14s
Bit rate mode : Constant
Bit rate : 384 Kbps
Channel(s) : 6 channels
Channel positions : Front: L C R, Side: L R, LFE
Sampling rate : 48.0 KHz
Bit depth : 16 bits
Compression mode : Lossy
Stream size : 61.1 MiB (9%)
Title : Original
Language : English

2 серия

C:\Совершенный Человек-Паук\Ultimate Spider-Man (WEB-DL l 720p l SerGoLeOne & Несмертельное оружие)\02. Great Responsibility.mkv
General
Unique ID : 183861888840247250081730790284421186140 (0x8A5283010F006747A0D576B7421F425C)
Complete name : C:\Совершенный Человек-Паук\Ultimate Spider-Man (WEB-DL l 720p l SerGoLeOne & Несмертельное оружие)\02. Great Responsibility.mkv
Format : Matroska
Format version : Version 1
File size : 723 MiB
Duration : 22mn 8s
Overall bit rate : 4 566 Kbps
Encoded date : UTC 2012-04-20 17:38:13
Writing application : mkvmerge v2.3.0 ('Freak U') built on Sep 8 2008 18:32:16
Writing library : libebml v0.7.7 + libmatroska v0.8.1
Video #1
ID : 1
Format : AVC
Format/Info : Advanced Video Codec
Format profile : High@L3.1
Format settings, CABAC : No
Format settings, ReFrames : 2 frames
Format settings, GOP : N=1
Codec ID : V_MPEG4/ISO/AVC
Duration : 22mn 8s
Bit rate : 3 899 Kbps
Width : 1 280 pixels
Height : 720 pixels
Display aspect ratio : 16:9
Frame rate : 23.976 fps
Color space : YUV
Chroma subsampling : 4:2:0
Bit depth : 8 bits
Scan type : Progressive
Bits/(Pixel*Frame) : 0.176
Stream size : 617 MiB (85%)
Language : English
Color primaries : BT.709-5, BT.1361, IEC 61966-2-4, SMPTE RP177
Transfer characteristics : BT.709-5, BT.1361
Matrix coefficients : BT.709-5, BT.1361, IEC 61966-2-4 709, SMPTE RP177
Audio #2
ID : 2
Format : AC-3
Format/Info : Audio Coding 3
Mode extension : CM (complete main)
Codec ID : A_AC3
Duration : 22mn 8s
Bit rate mode : Constant
Bit rate : 192 Kbps
Channel(s) : 2 channels
Channel positions : Front: L R
Sampling rate : 48.0 KHz
Bit depth : 16 bits
Compression mode : Lossy
Stream size : 30.4 MiB (4%)
Title : vk.com/sergoleone
Language : Russian
Audio #3
ID : 3
Format : AC-3
Format/Info : Audio Coding 3
Mode extension : CM (complete main)
Codec ID : A_AC3
Duration : 22mn 8s
Bit rate mode : Constant
Bit rate : 384 Kbps
Channel(s) : 6 channels
Channel positions : Front: L C R, Side: L R, LFE
Sampling rate : 48.0 KHz
Bit depth : 16 bits
Compression mode : Lossy
Stream size : 60.8 MiB (8%)
Title : Original
Language : English

3 серия

C:\Совершенный Человек-Паук\Ultimate Spider-Man (WEB-DL l 720p l SerGoLeOne & Несмертельное оружие)\03. Doomed!.mkv
General
Unique ID : 198417968620017858091680023715725387862 (0x9545E9256739CB8EAD8967B5A4732856)
Complete name : C:\Совершенный Человек-Паук\Ultimate Spider-Man (WEB-DL l 720p l SerGoLeOne & Несмертельное оружие)\03. Doomed!.mkv
Format : Matroska
Format version : Version 1
File size : 759 MiB
Duration : 22mn 8s
Overall bit rate : 4 790 Kbps
Encoded date : UTC 2012-04-28 15:39:31
Writing application : mkvmerge v2.3.0 ('Freak U') built on Sep 8 2008 18:32:16
Writing library : libebml v0.7.7 + libmatroska v0.8.1
Video #1
ID : 1
Format : AVC
Format/Info : Advanced Video Codec
Format profile : High@L3.1
Format settings, CABAC : No
Format settings, ReFrames : 2 frames
Codec ID : V_MPEG4/ISO/AVC
Duration : 22mn 8s
Bit rate : 4 119 Kbps
Width : 1 280 pixels
Height : 720 pixels
Display aspect ratio : 16:9
Frame rate : 23.976 fps
Color space : YUV
Chroma subsampling : 4:2:0
Bit depth : 8 bits
Scan type : Progressive
Bits/(Pixel*Frame) : 0.186
Stream size : 652 MiB (86%)
Language : English
Color primaries : BT.709-5, BT.1361, IEC 61966-2-4, SMPTE RP177
Transfer characteristics : BT.709-5, BT.1361
Matrix coefficients : BT.709-5, BT.1361, IEC 61966-2-4 709, SMPTE RP177
Audio #2
ID : 2
Format : AC-3
Format/Info : Audio Coding 3
Mode extension : CM (complete main)
Codec ID : A_AC3
Duration : 22mn 8s
Bit rate mode : Constant
Bit rate : 192 Kbps
Channel(s) : 2 channels
Channel positions : Front: L R
Sampling rate : 48.0 KHz
Bit depth : 16 bits
Compression mode : Lossy
Stream size : 30.4 MiB (4%)
Title : vk.com/sergoleone
Language : Russian
Audio #3
ID : 3
Format : AC-3
Format/Info : Audio Coding 3
Mode extension : CM (complete main)
Codec ID : A_AC3
Duration : 22mn 8s
Bit rate mode : Constant
Bit rate : 384 Kbps
Channel(s) : 6 channels
Channel positions : Front: L C R, Side: L R, LFE
Sampling rate : 48.0 KHz
Bit depth : 16 bits
Compression mode : Lossy
Stream size : 60.8 MiB (8%)
Title : Original
Language : English
Text #4
ID : 4
Format : ASS
Codec ID : S_TEXT/ASS
Codec ID/Info : Advanced Sub Station Alpha
Compression mode : Lossless
Title : Credits
Language : Russian

4 серия

C:\Совершенный Человек-Паук\Ultimate Spider-Man (WEB-DL l 720p l SerGoLeOne & Несмертельное оружие)\04. Venom.mkv
General
Unique ID : 243951038115070793979879449340673765022 (0xB78742CC1CEB42DC9DEC8CED8BDBAE9E)
Complete name : C:\Совершенный Человек-Паук\Ultimate Spider-Man (WEB-DL l 720p l SerGoLeOne & Несмертельное оружие)\04. Venom.mkv
Format : Matroska
Format version : Version 1
File size : 758 MiB
Duration : 22mn 8s
Overall bit rate : 4 788 Kbps
Encoded date : UTC 2012-05-10 09:03:34
Writing application : mkvmerge v2.3.0 ('Freak U') built on Sep 8 2008 18:32:16
Writing library : libebml v0.7.7 + libmatroska v0.8.1
Video #1
ID : 1
Format : AVC
Format/Info : Advanced Video Codec
Format profile : High@L3.1
Format settings, CABAC : No
Format settings, ReFrames : 2 frames
Codec ID : V_MPEG4/ISO/AVC
Duration : 22mn 8s
Bit rate : 4 116 Kbps
Width : 1 280 pixels
Height : 720 pixels
Display aspect ratio : 16:9
Frame rate : 23.976 fps
Color space : YUV
Chroma subsampling : 4:2:0
Bit depth : 8 bits
Scan type : Progressive
Bits/(Pixel*Frame) : 0.186
Stream size : 652 MiB (86%)
Language : English
Color primaries : BT.709-5, BT.1361, IEC 61966-2-4, SMPTE RP177
Transfer characteristics : BT.709-5, BT.1361
Matrix coefficients : BT.709-5, BT.1361, IEC 61966-2-4 709, SMPTE RP177
Audio #2
ID : 2
Format : AC-3
Format/Info : Audio Coding 3
Mode extension : CM (complete main)
Codec ID : A_AC3
Duration : 22mn 8s
Bit rate mode : Constant
Bit rate : 192 Kbps
Channel(s) : 2 channels
Channel positions : Front: L R
Sampling rate : 48.0 KHz
Bit depth : 16 bits
Compression mode : Lossy
Stream size : 30.4 MiB (4%)
Title : vk.com/sergoleone
Language : Russian
Audio #3
ID : 3
Format : AC-3
Format/Info : Audio Coding 3
Mode extension : CM (complete main)
Codec ID : A_AC3
Duration : 22mn 8s
Bit rate mode : Constant
Bit rate : 384 Kbps
Channel(s) : 6 channels
Channel positions : Front: L C R, Side: L R, LFE
Sampling rate : 48.0 KHz
Bit depth : 16 bits
Compression mode : Lossy
Stream size : 60.8 MiB (8%)
Title : Original
Language : English

7 серия

C:\Совершенный Человек-Паук\Ultimate Spider-Man (WEB-DL l 720p l SerGoLeOne & Несмертельное оружие)\07. Exclusive.mkv
General
Unique ID : 170560334783082029457515880366339746232 (0x8050B9C177EF4407BFDAA91C71EB69B8)
Complete name : C:\Совершенный Человек-Паук\Ultimate Spider-Man (WEB-DL l 720p l SerGoLeOne & Несмертельное оружие)\07. Exclusive.mkv
Format : Matroska
Format version : Version 1
File size : 743 MiB
Duration : 22mn 8s
Overall bit rate : 4 694 Kbps
Encoded date : UTC 2012-05-17 19:53:58
Writing application : mkvmerge v2.3.0 ('Freak U') built on Sep 8 2008 18:32:16
Writing library : libebml v0.7.7 + libmatroska v0.8.1
Video #1
ID : 1
Format : AVC
Format/Info : Advanced Video Codec
Format profile : High@L3.1
Format settings, CABAC : No
Format settings, ReFrames : 2 frames
Codec ID : V_MPEG4/ISO/AVC
Duration : 22mn 8s
Bit rate : 4 025 Kbps
Width : 1 280 pixels
Height : 720 pixels
Display aspect ratio : 16:9
Frame rate : 23.976 fps
Color space : YUV
Chroma subsampling : 4:2:0
Bit depth : 8 bits
Scan type : Progressive
Bits/(Pixel*Frame) : 0.182
Stream size : 637 MiB (86%)
Language : English
Color primaries : BT.709-5, BT.1361, IEC 61966-2-4, SMPTE RP177
Transfer characteristics : BT.709-5, BT.1361
Matrix coefficients : BT.709-5, BT.1361, IEC 61966-2-4 709, SMPTE RP177
Audio #2
ID : 2
Format : AC-3
Format/Info : Audio Coding 3
Mode extension : CM (complete main)
Codec ID : A_AC3
Duration : 22mn 8s
Bit rate mode : Constant
Bit rate : 192 Kbps
Channel(s) : 2 channels
Channel positions : Front: L R
Sampling rate : 48.0 KHz
Bit depth : 16 bits
Compression mode : Lossy
Stream size : 30.4 MiB (4%)
Title : sergoleone.ru
Language : Russian
Audio #3
ID : 3
Format : AC-3
Format/Info : Audio Coding 3
Mode extension : CM (complete main)
Codec ID : A_AC3
Duration : 22mn 8s
Bit rate mode : Constant
Bit rate : 384 Kbps
Channel(s) : 6 channels
Channel positions : Front: L C R, Side: L R, LFE
Sampling rate : 48.0 KHz
Bit depth : 16 bits
Compression mode : Lossy
Stream size : 60.8 MiB (8%)
Title : Original
Language : English
Торент обновлен
Добавлены с 21 по 26 серию
и звуковая дорожка Дубляж


Последний раз редактировалось: kaliasa (2013-02-13 22:01), всего редактировалось 17 раз(а)
[Торрент-статистика]
[Профиль]  [ЛС] 

TYAnCE

Пол:

Стаж: 4 года 11 месяцев

Сообщений: 269

Репутация: 65 [+] [-]

Откуда: Туапсе

Пост 01-Май-2012 21:15 (спустя 6 часов)

[Цитировать] 

А сэмпла не будет ad

_________________
[Торрент-статистика]
[Профиль]  [ЛС] 

kaliasa ®

Пол:

Стаж: 4 года 8 месяцев

Сообщений: 113

Репутация: 84 [+] [-]

Пост 02-Май-2012 00:06 (спустя 2 часа 50 минут)

[Цитировать] 

А сэмпла не будет ad
залил в шапку если что.
[Торрент-статистика]
[Профиль]  [ЛС] 

nova1980

Пол:

Стаж: 5 лет

Сообщений: 820

Репутация: 523 [+] [-]

Откуда: Одесса Мама

Пост 29-Май-2012 23:31 (спустя 27 дней)

[Цитировать] 

kaliasa, Только список серий подкорректируйте!

_________________
Мои Раздачи
[Торрент-статистика]
[Профиль]  [ЛС] 
Показать сообщения:    
Ответить на тему

Текущее время: Сегодня 16:34

Часовой пояс: GMT + 4



Вы не можете начинать темы
Вы не можете отвечать на сообщения
Вы не можете редактировать свои сообщения
Вы не можете удалять свои сообщения
Вы не можете голосовать в опросах
Вы не можете прикреплять файлы к сообщениям
Вы не можете скачивать файлы