Шаолиньские хроники / Xiaolin Chronicles / Сезон: 1(1) / Серии: 1-13 из 26 (Christy Hui / Кристи Хай) [2013, США, Приключения, Комедия, WEB-DLRip] Dub (студия "Пифагор") + Original (Eng) + Sub (Eng)

Ответить на тему
 
Автор
Сообщение

TiZAr ®

Пол:

Стаж: 3 года 3 месяца

Сообщений: 836

Репутация: 1157 [+] [-]

Откуда: Россия

Пост 21-Май-2015 01:45

[Цитировать] 

Шаолиньские хроники / Xiaolin Chronicles
Страна: США
Жанр: Приключения, Комедия
Продолжительность: 00:22:07
Год выпуска: 2013
Перевод: Профессиональный (дублированный) студия "Пифагор" 2014 г.
Русские субтитры: нет
Режиссёр: Christy Hui / Кристи Хай
Описание: "Шаолиньские хроники" - это продолжение мультипликационного сериала "Шаолиньские разборки", который завоевал большую популярность среди широкого круга зрителей. Спустя многие годы, проведенные в шаолиньском храме в постижении тонкостей боевого искусства и тренируя своё тело, они стали настоящими профессионалами своего дела... Становясь мастером, ты обрекаешь себя на ещё более трудные испытания, становишься ответственным за чью-то жизнь. Тобой восхищаются и пред тобой преклоняются ученики, приходящие в храм, а ты должен научить их всему тому, что умеешь сам. Другими словами, герои мультсериала никогда не сидят без дела. Они всегда в поисках чего-то нового и неизведанного, что требует применения не только знаний, но и силы, ведь плохие парни должны быть наказаны, а нуждающиеся в помощи должны её получить.- -Качество: WEB-DLRip (Сэмпл)
Формат: AVI
Видео: 720x400 (1.80:1), 23.976 fps, XviD ~1499 kbps, 0.22 bit/pixel
Аудио 1: 48 kHz, AC3, 2/0 (L,R) ch, ~192 kbps, Русский
Аудио 2: 48 kHz, AC3, 3/2 (L,C,R,l,r) + LFE ch, ~384 kbps, English
Субтитры: Aнглийские

БЛАГОДАРНОСТИ

Низкий поклон терпеливым и талантливым умельцам, благодаря которым появился этот релиз:afedrenkv и saylione - звук
Zuich32 и saylione- видео
*Sergeant_am* - синхронизация и сборка

Список серий:


S01E01 New Monk on the Block
S01E02 А Girl Named Willow
S01E03 The Fall of Xiaolin
S01E04 Buddy Blue Ray and the Golden Bunnies
S01E05 Xiaolin Redemption
S01E06 Laws of Nature
S01E07 Tokyo Madness
S01E08 Out of Ping Pong_s Mind
S01E09 Magic Stallion and the Wild Wild West
S01E10 Princess Kaila of the Thousand Layer Mountain
S01E11 Mi Temple, Mi Casa
S01E12 Tigress Woo
S01E13 Heylin Within
S01E14 Heal Me
S01E15 Rocco Choo
S01E16 The Mask of the Green Monkey
S01E17 Planet of the Dragons
S01E18 Super Cow Patty
S01E19 Chase Lays an Egg
S01E20 Drawn to be Evil
S01E21 Omi Saves the Holidays
S01E22 Who Shrunk Master Fung
S01E23 Back in the Flesh Again
S01E24 The Call of the Dragon
S01E25 The Mark of the Dragon Spirit
S01E26 Fly the Dragon!

Подробные технические данные

General
Complete name : \01. New Monk on the Block.avi
Format : AVI
Format/Info : Audio Video Interleave
File size : 331 MiB
Duration : 22mn 7s
Overall bit rate : 2 090 Kbps
Writing application : VirtualDubModRus 1.5.10.2 (build 2542/release)
Writing library : VirtualDubMod build 2542/release
Video
ID : 0
Format : MPEG-4 Visual
Format profile : Advanced Simple@L5
Format settings, BVOP : 1
Format settings, QPel : No
Format settings, GMC : No warppoints
Format settings, Matrix : Custom
Codec ID : XVID
Codec ID/Hint : XviD
Duration : 22mn 7s
Bit rate : 1 500 Kbps
Width : 720 pixels
Height : 400 pixels
Display aspect ratio : 16:9
Frame rate : 23.976 fps
Color space : YUV
Chroma subsampling : 4:2:0
Bit depth : 8 bits
Scan type : Progressive
Compression mode : Lossy
Bits/(Pixel*Frame) : 0.217
Stream size : 237 MiB (72%)
Writing library : XviD 73
Audio #1
ID : 1
Format : AC-3
Format/Info : Audio Coding 3
Mode extension : CM (complete main)
Format settings, Endianness : Big
Codec ID : 2000
Duration : 22mn 7s
Bit rate mode : Constant
Bit rate : 192 Kbps
Channel count : 2 channels
Channel positions : Front: L R
Sampling rate : 48.0 KHz
Bit depth : 16 bits
Compression mode : Lossy
Stream size : 30.4 MiB (9%)
Alignment : Split accross interleaves
Interleave, duration : 42 ms (1.00 video frame)
Interleave, preload duration : 500 ms
Audio #2
ID : 2
Format : AC-3
Format/Info : Audio Coding 3
Mode extension : CM (complete main)
Format settings, Endianness : Big
Codec ID : 2000
Duration : 22mn 7s
Bit rate mode : Constant
Bit rate : 384 Kbps
Channel count : 6 channels
Channel positions : Front: L C R, Side: L R, LFE
Sampling rate : 48.0 KHz
Bit depth : 16 bits
Compression mode : Lossy
Stream size : 60.8 MiB (18%)
Alignment : Split accross interleaves
Interleave, duration : 42 ms (1.00 video frame)
Interleave, preload duration : 500 ms

Скриншоты

[font=Georgia]Релиз от:

_________________
Не стоит обращать внимания на отсутствие сидов на моих раздачах. Все мои релизы мультитрекерные - нет сидов, включите DHT.
За релизами в HD качестве обращайтесь в личку, либо отписывайтесь в теме.
[Торрент-статистика]
[Профиль]  [ЛС] 
Показать сообщения:    
Ответить на тему

Текущее время: Сегодня 14:44

Часовой пояс: GMT + 4



Вы не можете начинать темы
Вы не можете отвечать на сообщения
Вы не можете редактировать свои сообщения
Вы не можете удалять свои сообщения
Вы не можете голосовать в опросах
Вы не можете прикреплять файлы к сообщениям
Вы не можете скачивать файлы