Индюки: Назад в будущее / Free Birds (Джимми Хейуорд / Jimmy Hayward) [2013 г., мультфильм, комедия, приключения, семейный, DVDRip] [Лицензия]

Ответить на тему
 
Автор
Сообщение

TiZAr ®

Пол:

Стаж: 3 года 3 месяца

Сообщений: 836

Репутация: 1157 [+] [-]

Откуда: Россия

Пост 04-Дек-2013 07:52

[Цитировать] 

Индюки: Назад в будущее / Free Birds
«Величайшее путешествие всех времён»
- Год выпуска: 2013
Страна: США / Reel FX Creative Studios, Relativity Media
Жанр: мультфильм, комедия, приключения, семейный
Продолжительность: 01:27:18
Перевод: Профессиональный (полное дублирование) [Лицензия]
Русские субтитры: Нет
Режиссер: Джимми Хейуорд / Jimmy Hayward- -Роли дублировали:
Оуэн Уилсон, Вуди Харрельсон, Эми Полер, Джордж Такей, Колм Мини, Кит Дэвид, Дэн Фоглер, Джимми Хейуорд, Кейтлин Мехер, Карлос Аласраки и др.
Описание:
Индюк Реджи вырос на обычной ферме, его жизнь была скучной и однообразной, как и у других птиц. Однако он отличался от сородичей тем, что умел пользоваться смекалкой и понимал, зачем его кормят. Поедание индейки на День Благодарения — знаменитая американская традиция, которая определяет смысл существования всех индюков на этой ферме. Однажды у Реджи появилась возможность кардинально изменить ситуацию: вместе с безумным приятелем Джейком они отправляются в необычное путешествие на машине времени. Основная задача — вернуться во времена, когда зарождалась традиция приготовления индейки на праздник, и изменить ход истории.
Доп. информация: релиз на DVD и Blu-Ray: 24 декабря 2013, «Парадиз / Активижен»
Качество: DVDRip | Сэмпл
Формат: AVI
Видео: MPEG4, XviD, 720x384 (1.875), 25.000 fps, 1 850 Kbps (0.268 bit/pixel)
Аудио: AC-3, 48.0 KHz, 6 ch, 384 Kbps, CBR

MI

Код:
General
Complete name                            : E:\downloads\Indjuki.Nazad.v.budushhee.2013.D.DVDRip.1400Mb.avi
Format                                   : AVI
Format/Info                              : Audio Video Interleave
File size                                : 1.37 GiB
Duration                                 : 1h 27mn
Overall bit rate                         : 2 244 Kbps
Writing application                      : VirtualDubMod 1.5.10.3 | www.virtualdub-fr.org || (build 2550/release)
Writing library                          : VirtualDubMod build 2550/release
Video
ID                                       : 0
Format                                   : MPEG-4 Visual
Format profile                           : Advanced Simple@L5
Format settings, BVOP                    : 2
Format settings, QPel                    : No
Format settings, GMC                     : No warppoints
Format settings, Matrix                  : Custom
Codec ID                                 : XVID
Codec ID/Hint                            : XviD
Duration                                 : 1h 27mn
Bit rate                                 : 1 850 Kbps
Width                                    : 720 pixels
Height                                   : 384 pixels
Display aspect ratio                     : 1.85:1
Frame rate                               : 25.000 fps
Color space                              : YUV
Chroma subsampling                       : 4:2:0
Bit depth                                : 8 bits
Scan type                                : Progressive
Compression mode                         : Lossy
Bits/(Pixel*Frame)                       : 0.268
Stream size                              : 1.13 GiB (82%)
Writing library                          : XviD 1.2.1 (UTC 2008-12-04)
Audio
ID                                       : 1
Format                                   : AC-3
Format/Info                              : Audio Coding 3
Mode extension                           : CM (complete main)
Format settings, Endianness              : Big
Codec ID                                 : 2000
Duration                                 : 1h 27mn
Bit rate mode                            : Constant
Bit rate                                 : 384 Kbps
Channel count                            : 6 channels
Channel positions                        : Front: L C R, Side: L R, LFE
Sampling rate                            : 48.0 KHz
Bit depth                                : 16 bits
Compression mode                         : Lossy
Stream size                              : 240 MiB (17%)
Alignment                                : Split accross interleaves
Interleave, duration                     : 40 ms (1.00 video frame)
Interleave, preload duration             : 500 ms

Скриншоты





_________________
Не стоит обращать внимания на отсутствие сидов на моих раздачах. Все мои релизы мультитрекерные - нет сидов, включите DHT.
За релизами в HD качестве обращайтесь в личку, либо отписывайтесь в теме.
[Торрент-статистика]
[Профиль]  [ЛС] 
Показать сообщения:    
Ответить на тему

Текущее время: Сегодня 00:19

Часовой пояс: GMT + 4



Вы не можете начинать темы
Вы не можете отвечать на сообщения
Вы не можете редактировать свои сообщения
Вы не можете удалять свои сообщения
Вы не можете голосовать в опросах
Вы не можете прикреплять файлы к сообщениям
Вы не можете скачивать файлы