Хранители снов / Rise of the Guardians (Питер Рэмси) [2012 г., Мультфильм, фэнтези, приключения, семейный, HDRip]

Ответить на тему
 
Автор
Сообщение

тукваква ®

Пол:

Стаж: 3 года 6 месяцев

Сообщений: 159

Репутация: 909 [+] [-]

Откуда: землянин

Пост 14-Май-2013 21:02

[Цитировать] 

Хранители снов / Rise of the Guardians
«Naughty, nice. You better believe.»
Год выпуска: 2012
Страна: США
Жанр: Мультфильм, фэнтези, приключения, семейный
Продолжительность: 01:35:22
Перевод: Профессиональный (полное дублирование)
Режиссер: Питер Рэмси
В ролях: Крис Пайн, Алек Болдуин, Айла Фишер, Дакота Гойо, Хью Джекман, Джуд Лоу, Хамани Гриффин, Камиль МакФедден, Джорджи Грив, Эмили Нордвинд
Описание: Когда злой дух Кромешник посягает на самое дорогое — детские мечты, Северянин, Ледяной Джек, Кролик, Зубная Фея и Песочный Человек впервые объединяются, чтобы создать команду Хранителей снов
Тип релиза: HDRip
Контейнер: AVI
Видео кодек: XviD
Аудио кодек: AC3-Видео: 720x400 (16:9), 23.976 fps, XviD build 64 ~ 1481kbps avg, 0.215bit/pixel
Аудио: 48 kHz, AC3 Dolby Digital, 3/2 (L,C,R,l,r) + LFE ch, ~448 kbps-Сэмпл

Скриншоты






MediaInfo

D:\Фильмы\Hraniteli snov.avi
General
Complete name : D:\Фильмы\Hraniteli snov.avi
Format : AVI
Format/Info : Audio Video Interleave
File size : 1.37 GiB
Duration : 1h 37mn
Overall bit rate : 2 018 Kbps
Writing application : VirtualDubMod 1.5.10.3 | www.virtualdub-fr.org || (build 2550/release)
Writing library : VirtualDubMod build 2550/release
Video #0
ID : 0
Format : MPEG-4 Visual
Format profile : Advanced Simple@L5
Format settings, BVOP : Yes
Format settings, QPel : No
Format settings, GMC : No warppoints
Format settings, Matrix : Custom
Codec ID : XVID
Codec ID/Hint : XviD
Duration : 1h 37mn
Bit rate : 1 481 Kbps
Width : 720 pixels
Height : 400 pixels
Display aspect ratio : 16:9
Frame rate : 23.976 fps
Color space : YUV
Chroma subsampling : 4:2:0
Bit depth : 8 bits
Scan type : Progressive
Bits/(Pixel*Frame) : 0.215
Stream size : 1.01 GiB (73%)
Writing library : XviD 64
Audio #1
ID : 1
Format : AC-3
Format/Info : Audio Coding 3
Mode extension : CM (complete main)
Codec ID : 2000
Duration : 1h 37mn
Bit rate mode : Constant
Bit rate : 448 Kbps
Channel(s) : 6 channels
Channel positions : Front: L C R, Side: L R, LFE
Sampling rate : 48.0 KHz
Bit depth : 16 bits
Stream size : 311 MiB (22%)
Alignment : Split accross interleaves

_________________
[Торрент-статистика]
[Профиль]  [ЛС] 

simbais

Пол:

Стаж: 4 года 10 месяцев

Сообщений: 652

Репутация: 184 [+] [-]

Откуда: Санкт-Петербург

Пост 14-Май-2013 21:10 (спустя 8 минут)

[Цитировать] 

Обалденный мультфильм.
Сердечная благодарность.

_________________
[Торрент-статистика]
[Профиль]  [ЛС] 

тукваква ®

Пол:

Стаж: 3 года 6 месяцев

Сообщений: 159

Репутация: 909 [+] [-]

Откуда: землянин

Пост 14-Май-2013 21:18 (спустя 8 минут)

[Цитировать] 

simbais,
Приятного просмотра, мульт действительно супер, раз 5 посмотрели уже.

_________________
[Торрент-статистика]
[Профиль]  [ЛС] 

Сфинксик

Пол:

Стаж: 3 года 7 месяцев

Сообщений: 1661

Репутация: 1032 [+] [-]

Откуда: г.Раменское

Пост 14-Май-2013 21:20 (спустя 1 минута)

[Цитировать] 

Заин
27085Приятного просмотра, мульт действительно супер, раз 5 посмотрели уже.
Заинтригрвал!!!!! надо будет на выходных посмотреть.

_________________
ЕСЛИ НЕТ СИДОВ НА РАЗДАЧЕ СТУЧИТЕ В ЛИЧКУ В ТЕЧЕНИИ СУТОК ВОССТАНОВЛЮ!!!!
[Торрент-статистика]
[Профиль]  [ЛС] 

тукваква ®

Пол:

Стаж: 3 года 6 месяцев

Сообщений: 159

Репутация: 909 [+] [-]

Откуда: землянин

Пост 14-Май-2013 21:22 (спустя 2 минуты)

[Цитировать] 

Сфинксик,
Конечно бери, с удовольствием посмотриш.

_________________
[Торрент-статистика]
[Профиль]  [ЛС] 

ArtZak

Пол:

Стаж: 5 лет 1 месяц

Сообщений: 3008

Репутация: 1363 [+] [-]

Откуда: Россия

Пост 14-Май-2013 21:33 (спустя 11 минут)

[Цитировать] 

тукваква, про незадокументированный тег pre знаешь?
[Торрент-статистика]
[Профиль]  [ЛС] 

тукваква ®

Пол:

Стаж: 3 года 6 месяцев

Сообщений: 159

Репутация: 909 [+] [-]

Откуда: землянин

Пост 15-Май-2013 04:48 (спустя 7 часов)

[Цитировать] 

тег pre знаешь?
?

_________________
[Торрент-статистика]
[Профиль]  [ЛС] 

ArtZak

Пол:

Стаж: 5 лет 1 месяц

Сообщений: 3008

Репутация: 1363 [+] [-]

Откуда: Россия

Пост 15-Май-2013 09:17 (спустя 4 часа)

[Цитировать] 

тукваква, позволяет сохранить табуляцию.
Пример:
Код:
[spoiler="MI"][pre]General
Complete name                            : D:\downloads\KSS\VIDEO_TS\VTS_01_1.VOB
Format                                   : MPEG-PS
File size                                : 1 024 MiB
Duration                                 : 37mn 13s
Overall bit rate mode                    : Variable
Overall bit rate                         : 3 847 Kbps
Video
ID                                       : 224 (0xE0)
Format                                   : MPEG Video
Format version                           : Version 2
Format profile                           : Main@Main
Format settings, BVOP                    : Yes
Format settings, Matrix                  : Default
Format settings, GOP                     : Variable
Duration                                 : 37mn 13s
Bit rate mode                            : Variable
Bit rate                                 : 3 642 Kbps
Maximum bit rate                         : 6 000 Kbps
Width                                    : 720 pixels
Height                                   : 576 pixels
Display aspect ratio                     : 4:3
Frame rate                               : 25.000 fps
Standard                                 : PAL
Color space                              : YUV
Chroma subsampling                       : 4:2:0
Bit depth                                : 8 bits
Scan type                                : Interlaced
Scan order                               : Top Field First
Compression mode                         : Lossy
Bits/(Pixel*Frame)                       : 0.351
Time code of first frame                 : 00:00:00:00
Time code source                         : Group of pictures header
Stream size                              : 970 MiB (95%)
Audio
ID                                       : 189 (0xBD)-128 (0x80)
Format                                   : AC-3
Format/Info                              : Audio Coding 3
Mode extension                           : CM (complete main)
Format settings, Endianness              : Big
Muxing mode                              : DVD-Video
Duration                                 : 37mn 12s
Bit rate mode                            : Constant
Bit rate                                 : 128 Kbps
Channel(s)                               : 2 channels
Channel positions                        : Front: L R
Sampling rate                            : 48.0 KHz
Bit depth                                : 16 bits
Compression mode                         : Lossy
Delay relative to video                  : -80ms
Stream size                              : 34.1 MiB (3%)
Menu[/pre][/spoiler]
выглядит так:

MI

General
Complete name : D:\downloads\KSS\VIDEO_TS\VTS_01_1.VOB
Format : MPEG-PS
File size : 1 024 MiB
Duration : 37mn 13s
Overall bit rate mode : Variable
Overall bit rate : 3 847 Kbps
Video
ID : 224 (0xE0)
Format : MPEG Video
Format version : Version 2
Format profile : Main@Main
Format settings, BVOP : Yes
Format settings, Matrix : Default
Format settings, GOP : Variable
Duration : 37mn 13s
Bit rate mode : Variable
Bit rate : 3 642 Kbps
Maximum bit rate : 6 000 Kbps
Width : 720 pixels
Height : 576 pixels
Display aspect ratio : 4:3
Frame rate : 25.000 fps
Standard : PAL
Color space : YUV
Chroma subsampling : 4:2:0
Bit depth : 8 bits
Scan type : Interlaced
Scan order : Top Field First
Compression mode : Lossy
Bits/(Pixel*Frame) : 0.351
Time code of first frame : 00:00:00:00
Time code source : Group of pictures header
Stream size : 970 MiB (95%)
Audio
ID : 189 (0xBD)-128 (0x80)
Format : AC-3
Format/Info : Audio Coding 3
Mode extension : CM (complete main)
Format settings, Endianness : Big
Muxing mode : DVD-Video
Duration : 37mn 12s
Bit rate mode : Constant
Bit rate : 128 Kbps
Channel(s) : 2 channels
Channel positions : Front: L R
Sampling rate : 48.0 KHz
Bit depth : 16 bits
Compression mode : Lossy
Delay relative to video : -80ms
Stream size : 34.1 MiB (3%)
Menu
без pre:

MI

General
Complete name : D:\downloads\KSS\VIDEO_TS\VTS_01_1.VOB
Format : MPEG-PS
File size : 1 024 MiB
Duration : 37mn 13s
Overall bit rate mode : Variable
Overall bit rate : 3 847 Kbps
Video
ID : 224 (0xE0)
Format : MPEG Video
Format version : Version 2
Format profile : Main@Main
Format settings, BVOP : Yes
Format settings, Matrix : Default
Format settings, GOP : Variable
Duration : 37mn 13s
Bit rate mode : Variable
Bit rate : 3 642 Kbps
Maximum bit rate : 6 000 Kbps
Width : 720 pixels
Height : 576 pixels
Display aspect ratio : 4:3
Frame rate : 25.000 fps
Standard : PAL
Color space : YUV
Chroma subsampling : 4:2:0
Bit depth : 8 bits
Scan type : Interlaced
Scan order : Top Field First
Compression mode : Lossy
Bits/(Pixel*Frame) : 0.351
Time code of first frame : 00:00:00:00
Time code source : Group of pictures header
Stream size : 970 MiB (95%)
Audio
ID : 189 (0xBD)-128 (0x80)
Format : AC-3
Format/Info : Audio Coding 3
Mode extension : CM (complete main)
Format settings, Endianness : Big
Muxing mode : DVD-Video
Duration : 37mn 12s
Bit rate mode : Constant
Bit rate : 128 Kbps
Channel(s) : 2 channels
Channel positions : Front: L R
Sampling rate : 48.0 KHz
Bit depth : 16 bits
Compression mode : Lossy
Delay relative to video : -80ms
Stream size : 34.1 MiB (3%)
Menu
P.S. Хороший мультик, вчера посмотрел - не разочаровался.
[Торрент-статистика]
[Профиль]  [ЛС] 

тукваква ®

Пол:

Стаж: 3 года 6 месяцев

Сообщений: 159

Репутация: 909 [+] [-]

Откуда: землянин

Пост 15-Май-2013 10:32 (спустя 1 час 15 минут)

[Цитировать] 

ArtZak,
Хороший мультик, вчера посмотрел - не разочаровался.
Я знал. У меня дети загоняли его.
позволяет сохранить табуляцию.
Да это мне не ново ( сам модерирую), я и поставил ? что что с оформлением.

_________________
[Торрент-статистика]
[Профиль]  [ЛС] 

ArtZak

Пол:

Стаж: 5 лет 1 месяц

Сообщений: 3008

Репутация: 1363 [+] [-]

Откуда: Россия

Пост 15-Май-2013 10:39 (спустя 6 минут)

[Цитировать] 

тукваква, да с оформлением все ОК. Просто подсказываю ab Приятно работать с опытными пользователями.
[Торрент-статистика]
[Профиль]  [ЛС] 

тукваква ®

Пол:

Стаж: 3 года 6 месяцев

Сообщений: 159

Репутация: 909 [+] [-]

Откуда: землянин

Пост 15-Май-2013 10:45 (спустя 6 минут)

[Цитировать] 

Просто подсказываю
Всегда прислушиваюсь, бывает много нового.

_________________
[Торрент-статистика]
[Профиль]  [ЛС] 
Показать сообщения:    
Ответить на тему

Текущее время: Сегодня 16:10

Часовой пояс: GMT + 4



Вы не можете начинать темы
Вы не можете отвечать на сообщения
Вы не можете редактировать свои сообщения
Вы не можете удалять свои сообщения
Вы не можете голосовать в опросах
Вы не можете прикреплять файлы к сообщениям
Вы не можете скачивать файлы