Смурфики. Рождественнский гимн / The Smurfs A Christmas Carol (Трой Квон / Troy Quane) [2011 г., короткометражный анимационный фильм, DVDRip] VO

Ответить на тему
 
Автор
Сообщение

NeliyZar ®

Пол:

Стаж: 5 лет 1 месяц

Сообщений: 3378

Репутация: 687 [+] [-]

Откуда: Донбасс

Пост 29-Ноя-2011 02:20

[Цитировать] 

Смурфики. Рождественнский гимн
The Smurfs A Christmas Carol
Год выпуска: 2011
Страна: США
Жанр: короткометражный анимационный фильм / animated short film
Продолжительность: 00:22:36
Перевод: Одноголосый закадровый
Субтитры: отсутствуют
Режиссер: Трой Квон / Troy Quane-Персонажи: Смурфики (Джек Эйнджел, Фред Армизен, Хэнк Азария, Гэри Басараба, Джордж Лопез, Мелисса Штурм, Антон Ельчин)--Описание: Перед нами история Ворчуна. Зима, Рождество, Ёлка. Он же обычно надевает на её верхушку яркую звезду. Пироги. Подарки. Но Ворчун ворчит по любому поводу: «Ненавижу то, ненавижу это, ненавижу ёлку, ненавижу пирог!» Больше всего его задевают подарки — каждый год, уже несколько сот лет, ему (как и всем остальным Смурфам) дарят шапочки: одинаковые, ничем не отличающиеся друг от друга. А он хотел … полетать
Качество: DVDRip
Формат: AVI
Видео кодек: XviD
Аудио кодек: MP3
Видео: 640x352 (1.82:1), 23.976 fps, XviD build 46 ~2033 kbps avg, 0.38 bit/pixel
Аудио: 48 kHz, MPEG Layer 3, 2 ch, ~128.00 kbps avg- -

AviInfo

File: The.Smurfs.A.Christmas.Carol.2011.L1.DVDRip..avi
Filesize: 351.07 Mb ( 368 121 856 bytes )
Play length: 00:22:36.271 (32518 frames)
Subtitles: Not Present
Video: 640x352 (1.82:1), 23.976 fps, XviD build 46 ~2033 kbps avg, 0.38 bit/pixel
Audio: 48 kHz, MPEG Layer 3, 2 ch, ~128.00 kbps avg

MediaInfo

:Общее
Полное имя : G:\Мультфильмы\Смурфики. Рождественнский гимн\The.Smurfs.A.Christmas.Carol.2011.L1.DVDRip..avi
Формат : AVI
Формат/Информация : Audio Video Interleave
Размер файла : 351 Мбайт
Продолжительность : 22 м.
Общий поток : 2171 Кбит/сек
Программа кодирования : VirtualDubMod 1.5.10.3 | www.virtualdub-fr.org || (build 2550/release)
Библиотека кодирования : VirtualDubMod build 2550/release
Видео
Идентификатор : 0
Формат : MPEG-4 Visual
Профиль формата : Simple@L3
Параметр BVOP формата : Нет
Параметр QPel формата : Нет
Параметр GMC формата : Без точки перехода
Параметр матрицы формата : Default (H.263)
Идентификатор кодека : XVID
Идентификатор кодека/Подсказка : XviD
Продолжительность : 22 м.
Битрейт : 2034 Кбит/сек
Ширина : 640 пикселей
Высота : 352 пикселя
Соотношение сторон : 16:9
Частота кадров : 23,976 кадра/сек
Цветовое пространство : YUV
Субдискретизация насыщенности : 4:2:0
Битовая глубина : 8 бит
Тип развёртки : Прогрессивная
Метод сжатия : С потерями
Бит/(Пиксели*Кадры) : 0.377
Размер потока : 329 Мбайт (94%)
Библиотека кодирования : XviD 1.1.2 (UTC 2006-11-01)
Аудио
Идентификатор : 1
Формат : MPEG Audio
Версия формата : Version 1
Профиль формата : Layer 3
Режим : Joint stereo
Расширение режима : MS Stereo
Идентификатор кодека : 55
Идентификатор кодека/Подсказка : MP3
Продолжительность : 22 м.
Вид битрейта : Постоянный
Битрейт : 128 Кбит/сек
Каналы : 2 канала
Частота : 48,0 КГц
Метод сжатия : С потерями
Размер потока : 20,7 Мбайт (6%)
Выравнивание : Соединение по промежуткам
Продолжительность промежутка : 42 мс. (1,00 видеокадр)
Время предзагрузки промежутка : 504 мс.

Скриншоты


_________________
Спорить с женщиной не так тяжело, когда понимаешь, что это бесполезно... (Михаил Мамчич)
Исправили раздачу? Отпишитесь модератору в ЛС с ссылкой на релиз.


Последний раз редактировалось: NeliyZar (2011-11-30 00:41), всего редактировалось 5 раз(а)
[Торрент-статистика]
[Профиль]  [ЛС] 

Волк

Пол:

Стаж: 5 лет 1 месяц

Сообщений: 689

Репутация: 292 [+] [-]

Откуда: Армения

Пост 29-Ноя-2011 13:24 (спустя 11 часов)

[Цитировать] 

Не указан формат.
[Торрент-статистика]
[Профиль]  [ЛС] 

diim

Пол:

Стаж: 1 год 10 месяцев

Сообщений: 1033

Репутация: 112 [+] [-]

Пост 29-Ноя-2011 14:28 (спустя 1 час 3 минуты)

[Цитировать] 

NeliyZar,
Может будем делать по шаблону, все указано к верх тормашками и многое не указано вообще ab
Следует поправить описание.
вот тут пример тех. характеристик и порядок их раположения http://www.brodim.com/viewtopic.php?p=2894#2894
[Торрент-статистика]
[Профиль]  [ЛС] 

diim

Пол:

Стаж: 1 год 10 месяцев

Сообщений: 1033

Репутация: 112 [+] [-]

Пост 30-Ноя-2011 01:59 (спустя 11 часов)

[Цитировать] 

Поправил описание и скриншоты.
[Торрент-статистика]
[Профиль]  [ЛС] 
Показать сообщения:    
Ответить на тему

Текущее время: Сегодня 14:48

Часовой пояс: GMT + 4



Вы не можете начинать темы
Вы не можете отвечать на сообщения
Вы не можете редактировать свои сообщения
Вы не можете удалять свои сообщения
Вы не можете голосовать в опросах
Вы не можете прикреплять файлы к сообщениям
Вы не можете скачивать файлы