Том и Джерри Робин Гуд и мышь-весельчак / Tom And Jerry Robin Hood And His Merry Mouse (Спайк Брандт / Spike Brandt, Тони Сервон / Tony Cervone) [2012, Мультипликация, DVDRip] Dub

Ответить на тему
 
Автор
Сообщение

TYAnCE ®

Пол:

Стаж: 4 года 11 месяцев

Сообщений: 269

Репутация: 65 [+] [-]

Откуда: Туапсе

Пост 02-Ноя-2012 18:30

[Цитировать] 

Том и Джерри Робин Гуд и мышь-весельчак / Tom And Jerry Robin Hood And His Merry Mouse- Страна: США
Жанр: Мультипликация
Продолжительность: 00:55:17
Год выпуска: 2012
Перевод: Профессиональный (дублированный)
Русские субтитры: нет
Режиссёр: Спайк Брандт / Spike Brandt, Тони Сервон / Tony Cervone-Роли озвучивали: Роб Полсен, Тодд Стэшвик, Лорейн Ньюмен-Описание: Он грабил богатых, раздавал награбленное бедным, а теперь ему отчаянно нужна помощь Тома и Джерри! Знаменитый разбойник Робин Гуд попал в лапы злого шерифа Ноттингемского, а возлюбленной Робина, деве Мэриан, грозит серьезная опасность со стороны алчного принца Джона. Сумеют ли заклятые враги Том и Джерри на время забыть о своей вражде, чтобы спасти положение? В новом полнометражном мультипликационном фильме любимая многими средневековая сказка обрела новое прочтение. Динамичный сюжет, опасные трюки, залихватские песни, и, конечно, всеобщие любимцы, воитель Томас и маленький разбойник Джерри. Один за всех и все за одного в самой бесшабашной и удивительной истории из всех, что когда-либо происходили в Шервудском лесу.-Благодарность - Спасибо Vlad-201194 за DVD диск.
Качество: DVDRip
Формат: AVI
Видео: MPEG4, XviD, 720x400 (16:9), 25.000 fps, 2 071 Kbps (0.288 bit/pixel)
Аудио 1: AC-3, 48.0 KHz, 2 ch, 192 Kbps, CBR [Rus]
Аудио 2: AC-3, 48.0 KHz, 6 ch, 384 Kbps, CBR [Eng]
Субтитры: отсутствуют- -

MI

Формат : AVI
Формат/Информация : Audio Video Interleave
Размер файла : 1,03 Гбайт
Продолжительность : 55 м.
Общий поток : 2662 Кбит/сек
Программа кодирования : VirtualDubMod 1.5.10.2 (build 2540/release)
Библиотека кодирования : VirtualDubMod build 2540/release
Видео
Идентификатор : 0
Формат : MPEG-4 Visual
Профиль формата : Advanced Simple@L5
Параметр BVOP формата : 2
Параметр QPel формата : Нет
Параметр GMC формата : Без точки перехода
Параметр матрицы формата : Default (H.263)
Режим смешивания : Сжатый битовый поток
Идентификатор кодека : XVID
Идентификатор кодека/Подсказка : XviD
Продолжительность : 55 м.
Битрейт : 2071 Кбит/сек
Ширина : 720 пикселей
Высота : 400 пикселей
Соотношение сторон : 16:9
Частота кадров : 25,000 кадров/сек
Цветовое пространство : YUV
Субдискретизация насыщенности : 4:2:0
Битовая глубина : 8 бит
Тип развёртки : Прогрессивная
Метод сжатия : С потерями
Бит/(Пиксели*Кадры) : 0.288
Размер потока : 819 Мбайт (78%)
Библиотека кодирования : XviD 1.2.1 (UTC 2008-12-04)
Аудио #1
Идентификатор : 1
Формат : AC-3
Формат/Информация : Audio Coding 3
Профиль формата : Dolby Digital
Расширение режима : CM (complete main)
Идентификатор кодека : 2000
Продолжительность : 55 м.
Вид битрейта : Постоянный
Битрейт : 192 Кбит/сек
Каналы : 2 канала
Расположение каналов : Front: L R
Частота : 48,0 КГц
Битовая глубина : 16 бит
Метод сжатия : С потерями
Размер потока : 75,9 Мбайт (7%)
Выравнивание : Разделение по промежуткам
Продолжительность промежутка : 40 мс. (1,00 видеокадр)
Время предзагрузки промежутка : 500 мс.
Аудио #2
Идентификатор : 2
Формат : AC-3
Формат/Информация : Audio Coding 3
Расширение режима : CM (complete main)
Идентификатор кодека : 2000
Продолжительность : 55 м.
Вид битрейта : Постоянный
Битрейт : 384 Кбит/сек
Каналы : 6 каналов
Расположение каналов : Front: L C R, Side: L R, LFE
Частота : 48,0 КГц
Битовая глубина : 16 бит
Метод сжатия : С потерями
Размер потока : 152 Мбайт (14%)
Выравнивание : Разделение по промежуткам
Продолжительность промежутка : 40 мс. (1,00 видеокадр)
Время предзагрузки промежутка : 500 мс.

Скриншоты



_________________
[Торрент-статистика]
[Профиль]  [ЛС] 
Показать сообщения:    
Ответить на тему

Текущее время: Сегодня 14:47

Часовой пояс: GMT + 4



Вы не можете начинать темы
Вы не можете отвечать на сообщения
Вы не можете редактировать свои сообщения
Вы не можете удалять свои сообщения
Вы не можете голосовать в опросах
Вы не можете прикреплять файлы к сообщениям
Вы не можете скачивать файлы