Кунг-фу Панда 2 / Kung Fu Panda 2 (Дженнифер Ю / Jennifer Yuh) [2011, Мультфильм, боевик, комедия, приключения, семейный, BDRip 1080p] Dub

Ответить на тему
 
Автор
Сообщение

Волк ®

Пол:

Стаж: 5 лет 1 месяц

Сообщений: 689

Репутация: 292 [+] [-]

Откуда: Армения

Пост 25-Ноя-2011 21:21

[Цитировать] 

Кунг-фу Панда 2 / Kung Fu Panda 2- Год выпуска: 2011
Страна: США / DreamWorks Animation
Жанр: Мультфильм, боевик, комедия, приключения, семейный
Продолжительность: 01:30:23
Озвучивание: Дублированное [лицензия]
Оригинальная дорожка: Английский
Субтитры: Русские
Режиссер: Дженнифер Ю / Jennifer Yuh
В ролях: Анджелина Джоли, Гари Олдман, Сет Роген, Жан-Клод Ван Дамм, Джек Блэк, Джеки Чан, Дастин Хоффман, Дэвид Кросс, Люси Лью, Мишель Йео
Роли дублировали: Михаил Галустян, Ольга Зубкова, Дмитрий Поляновский, Диомид Виноградов, Пётр Иващенко
Описание: Панда По, величайший в мире фанат кунг-фу, продолжает свое путешествие, как и гласит древнее пророчество, осваивая искусство кунг-фу.
Доп. информация: Кинопоиск
Доп. информация: Семпл-Тип релиза: BDRip 1080p
Контейнер: MKV
Видео: MPEG-4 AVC Video / 8335 kbps / 1920 x 816 p / 23.976 fps / 2.353: 1 / High Profile 4.1
Аудио 1: Dolby Digital Audio Russian 5.1 / 48 kHz / 448 kbps
Аудио 2: DTS Audio English 5.1 48 kHz / 1509 kbps / 24-bit

Скриншоты

Видеоряд от CHD

Kung.Fu.Panda.2.2011.BluRay.1080p.DTS.x264-CHD
RELEASE DATE....: 10/18/2011
THEATRE DATE....: 2011
iMDB URL........: http://www.imdb.com/title/tt1302011/
iMDB RATiNG.....: 7.6/10 28,044 votes
GENRE...........: Animation | Action | Adventure
SOURCE..........: Kung Fu Panda 2 2011 BluRay 1080p AVC TrueHD7.1-CHDBits
ViDEO BiTRATE...: x264 @ 8335 Kbps
FRAME RATE......: 23.976 fps
AUDiO 1 BiTRATE.: ENG DTS 5.1CH @ 1536 kbps(From TRUEHD7.1 24bit)
RUNTiME ........: 01:30:23 (h:m:s)
ASPECT RATiO....: 2.353: 1
RESOLUTiON......: 1920 X 816
SUBTiTLES.......: N/A
FilE SiZE.......: 6.5G
Encoder.........: chp@CHD
x264 [info]: frame I:1408 Avg QP:14.31 size:231187
x264 [info]: frame P:36502 Avg QP:15.71 size: 74822
x264 [info]: frame B:92134 Avg QP:16.92 size: 31823

MI


General
Complete name : X:\ -= Фильмы =-\Кунг-фу Панда 2 (2011. Kung Fu Panda 2).mkv
Format : Matroska
File size : 6.82 GiB
Duration : 1h 30mn
Overall bit rate : 10.8 Mbps
Movie name : Kung.Fu.Panda.2.2011.BluRay.1080p.DTS.x264-CHD [rutracker.org]
Encoded date : UTC 2011-10-18 04:29:11
Writing application : mkvmerge v4.9.1 ('Ich will') сборка от Jul 11 2011 23:53:15
Writing library : libebml v1.2.1 + libmatroska v1.1.1
Video
ID : 1
Format : AVC
Format/Info : Advanced Video Codec
Format profile : High@L4.1
Format settings, CABAC : Yes
Format settings, ReFrames : 5 frames
Muxing mode : Container profile=Unknown@4.1
Codec ID : V_MPEG4/ISO/AVC
Duration : 1h 30mn
Bit rate : 8 835 Kbps
Width : 1 920 pixels
Height : 816 pixels
Display aspect ratio : 2.35:1
Frame rate : 23.976 fps
Color space : YUV
Chroma subsampling : 4:2:0
Bit depth : 8 bits
Scan type : Progressive
Bits/(Pixel*Frame) : 0.235
Stream size : 5.44 GiB (80%)
Title : Kung.Fu.Panda.2.2011.BluRay.1080p.DTS.x264-CHD
Writing library : x264 core 116 r2074 2641b9e
Encoding settings : cabac=1 / ref=5 / deblock=1:-2:-2 / analyse=0x3:0x113 / me=umh / subme=11 / psy=1 / psy_rd=1.00:0.05 / mixed_ref=1 / me_range=48 / chroma_me=1 / trellis=2 / 8x8dct=1 / cqm=0 / deadzone=21,11 / fast_pskip=0 / chroma_qp_offset=-2 / threads=8 / sliced_threads=0 / nr=0 / decimate=1 / interlaced=0 / bluray_compat=0 / constrained_intra=0 / bframes=5 / b_pyramid=2 / b_adapt=2 / b_bias=0 / direct=3 / weightb=1 / open_gop=0 / weightp=2 / keyint=250 / keyint_min=23 / scenecut=40 / intra_refresh=0 / rc_lookahead=40 / rc=2pass / mbtree=0 / bitrate=8835 / ratetol=1.0 / qcomp=0.70 / qpmin=0 / qpmax=69 / qpstep=4 / cplxblur=20.0 / qblur=0.5 / vbv_maxrate=40000 / vbv_bufsize=40000 / nal_hrd=none / ip_ratio=1.40 / pb_ratio=1.30 / aq=2:1.00
Language : English
Audio #1
ID : 2
Format : AC-3
Format/Info : Audio Coding 3
Mode extension : CM (complete main)
Codec ID : A_AC3
Duration : 1h 30mn
Bit rate mode : Constant
Bit rate : 448 Kbps
Channel(s) : 6 channels
Channel positions : Front: L C R, Side: L R, LFE
Sampling rate : 48.0 KHz
Bit depth : 16 bits
Stream size : 290 MiB (4%)
Title : Dub
Language : Russian
Audio #2
ID : 3
Format : DTS
Format/Info : Digital Theater Systems
Codec ID : A_DTS
Duration : 1h 30mn
Bit rate mode : Constant
Bit rate : 1 510 Kbps
Channel(s) : 6 channels
Channel positions : Front: L C R, Side: L R, LFE
Sampling rate : 48.0 KHz
Bit depth : 24 bits
Stream size : 976 MiB (14%)
Language : English
Text #1
ID : 4
Format : UTF-8
Codec ID : S_TEXT/UTF8
Codec ID/Info : UTF-8 Plain Text
Language : Russian
Text #2
ID : 5
Format : UTF-8
Codec ID : S_TEXT/UTF8
Codec ID/Info : UTF-8 Plain Text
Language : English
Menu
00:00:00.000 : en:00:00:00.000
00:03:54.276 : en:00:03:54.276
00:10:35.343 : en:00:10:35.343
00:16:09.385 : en:00:16:09.385
00:21:15.774 : en:00:21:15.774
00:29:56.628 : en:00:29:56.628
00:36:53.878 : en:00:36:53.878
00:41:14.180 : en:00:41:14.180
00:49:44.815 : en:00:49:44.815
00:54:06.827 : en:00:54:06.827
00:58:54.781 : en:00:58:54.781
01:05:09.239 : en:01:05:09.239
01:11:43.799 : en:01:11:43.799
01:15:31.902 : en:01:15:31.902
01:21:15.871 : en:01:21:15.871
[Торрент-статистика]
[Профиль]  [ЛС] 
Показать сообщения:    
Ответить на тему

Текущее время: Сегодня 14:48

Часовой пояс: GMT + 4



Вы не можете начинать темы
Вы не можете отвечать на сообщения
Вы не можете редактировать свои сообщения
Вы не можете удалять свои сообщения
Вы не можете голосовать в опросах
Вы не можете прикреплять файлы к сообщениям
Вы не можете скачивать файлы