Пингвины Мадагаскара / The Penguins of Madagascar (DreamWorks SKG) [2012, Мультфильм, комедия, приключения, семейный, DVDRip] AVO

Ответить на тему
 
Автор
Сообщение

TYAnCE ®

Пол:

Стаж: 4 года 11 месяцев

Сообщений: 269

Репутация: 65 [+] [-]

Откуда: Туапсе

Пост 04-Авг-2012 11:47

[Цитировать] 

Пингвины Мадагаскара / The Penguins of Madagascar
-Страна: США
Жанр: Мультфильм, комедия, приключения, семейный
Продолжительность: 01:29:36
Год выпуска: 2012
Перевод: Авторский (одноголосый закадровый)
Русские субтитры: нет-Режиссёр: DreamWorks SKG
Описание: Ковальски, Шкипер, Рико и Рядовой - отважные и смелые пингвины-коммандос из "Мадагаскара" которые возвращаются к нам со своей историей. Захватывающие приключения, новые секретные задания и весёлый юмор, вот что подарит нам эта великолепная четвёрка!-Семпл: -

Дополнительная информация

Сборник избранных серий. Серии:
1. Операция отпуск, ч.1
2. Победитель получает все
3. Зоо TV
4. Привет, куколка
5. Барсучья гордость
6. Маска енота
7. Тупиковая ситуация
8. Операция отпуск, ч.2
-Качество: DVDRip
Формат: AVI
Видео: 1975 kb/s, 16:9, 720x400
Аудио: AC3, 192 kb/s (2 ch)
Субтитры: Отсутствуют

Подробные технические данные

Общее
Полное имя : C:\Users\Admin\Videos\Pingvinu.madagascara.operacia.otpysk.2012..DVDRip.1400MB.avi
Формат : AVI
Формат/Информация : Audio Video Interleave
Размер файла : 1,36 Гбайт
Продолжительность : 1 ч. 29 м.
Общий поток : 2178 Кбит/сек
Программа кодирования : VirtualDubMod 1.5.10.3 | www.virtualdub-fr.org || (build 2550/release)
Библиотека кодирования : VirtualDubMod build 2550/release
Видео
Идентификатор : 0
Формат : MPEG-4 Visual
Профиль формата : Advanced Simple@L5
Параметр BVOP формата : 2
Параметр QPel формата : Нет
Параметр GMC формата : Без точки перехода
Параметр матрицы формата : Выборочная
Идентификатор кодека : XVID
Идентификатор кодека/Подсказка : XviD
Продолжительность : 1 ч. 29 м.
Битрейт : 1976 Кбит/сек
Ширина : 720 пикселей
Высота : 400 пикселей
Соотношение сторон : 16:9
Частота кадров : 25,000 кадров/сек
Цветовое пространство : YUV
Субдискретизация насыщенности : 4:2:0
Битовая глубина : 8 бит
Тип развёртки : Прогрессивная
Метод сжатия : С потерями
Бит/(Пиксели*Кадры) : 0.274
Размер потока : 1,24 Гбайт (91%)
Библиотека кодирования : XviD 1.2.1 (UTC 2008-12-04)
Аудио
Идентификатор : 1
Формат : AC-3
Формат/Информация : Audio Coding 3
Расширение режима : CM (complete main)
Идентификатор кодека : 2000
Продолжительность : 1 ч. 29 м.
Вид битрейта : Постоянный
Битрейт : 192 Кбит/сек
Каналы : 2 канала
Расположение каналов : Front: L R
Частота : 48,0 КГц
Битовая глубина : 16 бит
Метод сжатия : С потерями
Размер потока : 123 Мбайт (9%)
Выравнивание : Разделение по промежуткам
Продолжительность промежутка : 40 мс. (1,00 видеокадр)
Время предзагрузки промежутка : 500 мс.[/pre]

Скриншоты


_________________
[Торрент-статистика]
[Профиль]  [ЛС] 
Показать сообщения:    
Ответить на тему

Текущее время: Сегодня 00:15

Часовой пояс: GMT + 4



Вы не можете начинать темы
Вы не можете отвечать на сообщения
Вы не можете редактировать свои сообщения
Вы не можете удалять свои сообщения
Вы не можете голосовать в опросах
Вы не можете прикреплять файлы к сообщениям
Вы не можете скачивать файлы