Храбрая сердцем / Brave (Марк Эндрюс / Mark Andrews, Бренда Чэпман / Brenda Chapman, Стив Пурселл / Steve Purcell) [2012 г., Мультфильм, Приключения, Семейный, BDRip-AVC 3D: Anamorph OverUnder / Вертикальная анаморфная стереопара] [Лицензия]

Ответить на тему
 
Автор
Сообщение

ArtZak ®

Пол:

Стаж: 5 лет 1 месяц

Сообщений: 3008

Репутация: 1363 [+] [-]

Откуда: Россия

Пост 23-Июн-2012 18:32

[Цитировать] 

Год выпуска: 2012
Страна: США
Жанр: Мультфильм, Фэнтези, Комедия, Приключения, Семейный
Продолжительность: 01:34:12
Перевод: Профессиональный (полное дублирование) [Лицензия]
Субтитры: Русские, Английские (отдельно)
Режиссер: Марк Эндрюс / Mark Andrews, Бренда Чэпман / Brenda Chapman, Стив Пурселл / Steve Purcell
Производство: Pixar Animation Studios, Walt Disney Pictures- -В ролях: Келли Макдоналд, Эмма Томпсон, Билли Коннолли, Джули Уолтерс, Робби Колтрейн, Кевин МакКидд, Крэйг Фергюсон, Сэлли Кингхорн, Эйлид Фрайзер, Peigi Barker и др.
Описание: Испокон веков мифы и легенды окутывают загадочной пеленой живописные отроги Шотландских гор. Искусной лучнице Мериде приходится выбирать свой путь в жизни самостоятельно, и однажды она отказывается следовать древним традициям королевства, бросая вызов могущественным шотландским кланам и их предводителям: нескладному лорду МакГаффину, угрюмому лорду Макинтошу и сварливому лорду Дингволлу. Неосторожные поступки Мериды грозят повергнуть королевство в хаос, и тогда она отправляется за советом к эксцентричной отшельнице, которая вместо помощи накладывает на Мериду опасное заклятье. Юной принцессе предстоит полагаться только на собственную храбрость, чтобы преодолеть могущественное волшебство и победить самого страшного зверя из тех, что водятся в горных долинах.
Роли дублировали:
Лиза Арзамасова
Татьяна Веденеева
Михаил Шуфутинский
СКАЧАТЬ СЭМПЛ
Релиз группы:

Тип релиза: BDRip
Контейнер: MKV
Формат 3D: Anamorph OverUnder / Вертикальная анаморфная стереопара
Порядок ракурсов: левый ракурс первый
Видео кодек: x264
Аудио кодек: AC3
Видео: AVC / 23,976 fps / 1920х1080p / 6276 Kbps
Аудио:
#1: AC3 / 5.1 ch / 448 kbps / Русский дубляж BD CEE
#2: AC3 / 5.1 ch / 448 kbps / Украинский дубляж BD CEE
#3: AC3 / 5.1 ch / 640 kbps / Original английский BD CEE
#4: AC3 / 2 ch / 48 kHz / 320 kbps / английский (commentary)

MI

Общее
Уникальный идентификатор : 244633716000382834285722590121953195478 (0xB80ABD6A6D20148B8007993F0ECDF5D6)
Полное имя : D:3D-RuGroupМультфильмыBrave.3D.2012.BD3DRip.Half.OU.x264.AC3.Rus.Ukr.Eng.3D-RuGroup.mkv
Формат : Matroska
Версия формата : Version 2
Размер файла : 5,46 Гбайт
Продолжительность : 1 ч. 34 м.
Общий поток : 8297 Кбит/сек
Название фильма : Brave release 3D-RuGroup rip by StarStranger release 3D-RuGroup
Дата кодирования : UTC 2012-11-16 13:28:44
Программа кодирования : mkvmerge v3.4.0 ('Rapunzel') сборка от May 15 2010 09:38:20
Библиотека кодирования : libebml v0.8.0 + libmatroska v0.9.0
Attachment : Yes
Видео
Идентификатор : 1
Формат : AVC
Формат/Информация : Advanced Video Codec
Профиль формата : High@L4.1
Параметр CABAC формата : Да
Параметр ReFrames формата : 4 кадра
Идентификатор кодека : V_MPEG4/ISO/AVC
Продолжительность : 1 ч. 34 м.
Битрейт : 6276 Кбит/сек
Ширина : 1920 пикселей
Высота : 1080 пикселей
Соотношение сторон : 16:9
Частота кадров : 23,976 кадра/сек
Цветовое пространство : YUV
Субдискретизация насыщенности : 4:2:0
Битовая глубина : 8 бит
Тип развёртки : Прогрессивная
Бит/(Пиксели*Кадры) : 0.126
Размер потока : 4,13 Гбайт (76%)
Заголовок : rip by StarStranger
Библиотека кодирования : x264 core 128 r2216 198a7ea
Настройки программы : cabac=1 / ref=4 / deblock=1:-3:-3 / analyse=0x3:0x133 / me=umh / subme=10 / psy=1 / psy_rd=1.00:0.15 / mixed_ref=1 / me_range=48 / chroma_me=1 / trellis=2 / 8x8dct=1 / cqm=0 / deadzone=21,11 / fast_pskip=0 / chroma_qp_offset=-3 / threads=3 / lookahead_threads=1 / sliced_threads=0 / nr=0 / decimate=1 / interlaced=0 / bluray_compat=0 / constrained_intra=0 / bframes=8 / b_pyramid=2 / b_adapt=2 / b_bias=0 / direct=3 / weightb=1 / open_gop=0 / weightp=2 / keyint=250 / keyint_min=23 / scenecut=40 / intra_refresh=0 / rc_lookahead=60 / rc=crf / mbtree=1 / crf=17.0 / qcomp=0.70 / qpmin=0 / qpmax=69 / qpstep=4 / vbv_maxrate=50000 / vbv_bufsize=50000 / crf_max=0.0 / nal_hrd=none / ip_ratio=1.40 / aq=1:0.70
Default : Нет
Forced : Нет
Аудио #1
Идентификатор : 2
Формат : AC-3
Формат/Информация : Audio Coding 3
Расширение режима : CM (complete main)
Идентификатор кодека : A_AC3
Продолжительность : 1 ч. 34 м.
Вид битрейта : Постоянный
Битрейт : 448 Кбит/сек
Каналы : 6 каналов
Расположение каналов : Front: L C R, Side: L R, LFE
Частота : 48,0 КГц
Битовая глубина : 16 бит
Метод сжатия : С потерями
Размер потока : 302 Мбайт (5%)
Язык : Russian
Default : Нет
Forced : Нет
Аудио #2
Идентификатор : 3
Формат : AC-3
Формат/Информация : Audio Coding 3
Расширение режима : CM (complete main)
Идентификатор кодека : A_AC3
Продолжительность : 1 ч. 34 м.
Вид битрейта : Постоянный
Битрейт : 448 Кбит/сек
Каналы : 6 каналов
Расположение каналов : Front: L C R, Side: L R, LFE
Частота : 48,0 КГц
Битовая глубина : 16 бит
Метод сжатия : С потерями
Размер потока : 302 Мбайт (5%)
Язык : Ukrainian
Default : Да
Forced : Нет
Аудио #3
Идентификатор : 4
Формат : AC-3
Формат/Информация : Audio Coding 3
Расширение режима : CM (complete main)
Идентификатор кодека : A_AC3
Продолжительность : 1 ч. 34 м.
Вид битрейта : Постоянный
Битрейт : 640 Кбит/сек
Каналы : 6 каналов
Расположение каналов : Front: L C R, Side: L R, LFE
Частота : 48,0 КГц
Битовая глубина : 16 бит
Метод сжатия : С потерями
Размер потока : 431 Мбайт (8%)
Язык : English
Default : Нет
Forced : Нет
Аудио #4
Идентификатор : 5
Формат : AC-3
Формат/Информация : Audio Coding 3
Расширение режима : CM (complete main)
Идентификатор кодека : A_AC3
Продолжительность : 1 ч. 34 м.
Вид битрейта : Постоянный
Битрейт : 320 Кбит/сек
Каналы : 2 канала
Расположение каналов : Front: L R
Частота : 48,0 КГц
Битовая глубина : 16 бит
Метод сжатия : С потерями
Размер потока : 216 Мбайт (4%)
Заголовок : commentary
Язык : English
Default : Нет
Forced : Нет
Меню
00:00:00.000 : en:00:00:00.000
00:04:22.846 : en:00:04:22.846
00:09:17.432 : en:00:09:17.432
00:12:53.356 : en:00:12:53.356
00:14:00.256 : en:00:14:00.256
00:16:10.469 : en:00:16:10.469
00:17:36.681 : en:00:17:36.681
00:22:55.791 : en:00:22:55.791
00:27:22.891 : en:00:27:22.891
00:28:51.229 : en:00:28:51.229
00:30:54.853 : en:00:30:54.853
00:34:00.372 : en:00:34:00.372
00:36:03.495 : en:00:36:03.495
00:39:06.928 : en:00:39:06.928
00:41:55.096 : en:00:41:55.096
00:43:27.980 : en:00:43:27.980
00:47:05.740 : en:00:47:05.740
00:48:22.358 : en:00:48:22.358
00:51:04.061 : en:00:51:04.061
00:52:33.859 : en:00:52:33.859
00:54:01.155 : en:00:54:01.155
00:54:45.699 : en:00:54:45.699
00:57:30.864 : en:00:57:30.864
00:59:00.162 : en:00:59:00.162
01:02:48.181 : en:01:02:48.181
01:03:27.387 : en:01:03:27.387
01:09:57.735 : en:01:09:57.735
01:10:37.275 : en:01:10:37.275
01:12:35.726 : en:01:12:35.726
01:13:39.498 : en:01:13:39.498
01:15:35.489 : en:01:15:35.489
01:16:59.073 : en:01:16:59.073
01:17:37.111 : en:01:17:37.111
01:19:48.200 : en:01:19:48.200
01:23:16.783 : en:01:23:16.783
01:24:38.657 : en:01:24:38.657
01:32:52.567 : en:01:32:52.567

Скриншоты


Проверено на встроенном плейере ТВ LG 42LW4500


Последний раз редактировалось: ArtZak (2013-01-01 05:41), всего редактировалось 2 раз(а)
[Торрент-статистика]
[Профиль]  [ЛС] 

Nadejda-81

Стаж: 4 года 3 месяца

Сообщений: 1

Репутация: 0 [+] [-]

Пост 30-Авг-2012 10:13 (спустя 2 месяца 6 дней)

[Цитировать] 

Спасибо
[Торрент-статистика]
[Профиль]  [ЛС] 

ArtZak ®

Пол:

Стаж: 5 лет 1 месяц

Сообщений: 3008

Репутация: 1363 [+] [-]

Откуда: Россия

Пост 01-Сен-2012 22:42 (спустя 2 дня 12 часов)

[Цитировать] 

Nadejda-81, на здоровье ab
[Торрент-статистика]
[Профиль]  [ЛС] 

ArtZak ®

Пол:

Стаж: 5 лет 1 месяц

Сообщений: 3008

Репутация: 1363 [+] [-]

Откуда: Россия

Пост 31-Дек-2012 18:30 (спустя 3 месяца 29 дней)

[Цитировать] 

Торрент заменен на более качественный - 3D: Anamorph OverUnder / Вертикальная анаморфная стереопара [Лицензия]. Нуждается в перемещении в соостветствующий раздел.
[Торрент-статистика]
[Профиль]  [ЛС] 

Пост 01-Янв-2013 13:41 (спустя 19 часов)

Топик был перенесен из форума Зарубежные мультфильмы (CamRip, TS, Screener) в форум Зарубежные мультфильмы
Волк
 
Показать сообщения:    
Ответить на тему

Текущее время: Сегодня 16:29

Часовой пояс: GMT + 4



Вы не можете начинать темы
Вы не можете отвечать на сообщения
Вы не можете редактировать свои сообщения
Вы не можете удалять свои сообщения
Вы не можете голосовать в опросах
Вы не можете прикреплять файлы к сообщениям
Вы не можете скачивать файлы