Петсон и Финдус / Pettson och Findus (Albert Hanan Kaminski) [2000 г., семейный, мультфильм, DVDRip]

Ответить на тему
 
Автор
Сообщение

3232fox ®

Пол:

Стаж: 3 года 8 месяцев

Сообщений: 614

Репутация: 423 [+] [-]

Откуда: Крым,Россия

Пост 19-Апр-2016 23:11

[Цитировать] 

-Петсон и Финдус / Pettson och Findus-Год выпуска: 2000
Страна: Германия,Швеция
Жанр: семейный, мультфильм
Продолжительность: ~02:26:02
Перевод: Профессиональный (многоголосый, закадровый)-Режиссер: Albert Hanan Kaminski-Дубляж: Нис Банк-Миккельсен, Terese Damsholt, Bente Eskesen, Laura Jonasdottir, Томми Карлсен, Ларс Кнутцон, Калле Лундберг, Пер Паллесен, Торд Петерсон, Мона Сейлитц-Описание: В основе мультфильма «Петсон и Финдус» – мотивы произведений известного шведского писателя Свена Нурдквиста, создавшего ряд произведений о жизни и приключениях старика Петсона и его друга – котенка Финдуса. Старик и кот живут в небольшой деревушке вдали от достижений цивилизации. Престарелому Петсону нравится тихая и размеренная жизнь, все свое свободное время старик старается отдать любимым занятиям. Соседи считают его угрюмым, замкнутым и даже слегка странноватым человеком, но он не взирает на это, поскольку занятие любимым делом Петсону намного милее, чем обычные разговоры ни о чем.
Только сполна отдать все свое время работе и увлечениям удается далеко не всегда, ибо Финдус не сидит на месте, а все время вляпывается в какие-то авантюры и приключения. Несмотря на полную противоположность в характерах, старик и кот дополняют друг друга. Петсон, вытаскивая кота из очередной передряги, чувствует себя более молодым, а Финдус набирается от своего хозяина ума и опыта.
Стоит отметить, что мультипликационный фильм создавался с учетом типа мышления маленьких зрителей. Главные герои знакомят малышей с реалиями взрослого мира, учат, как избежать опасных и неприятных ситуаций, как выпутаться из них, коль они все же приключились. Таким образом, истории, которые постоянно приключаются со стариком и его котом, не только увлекательные и смешные, но еще и весьма поучительные.
-Тип релиза: DVDRip
Контейнер: AVI
Видео кодек: DivX
Аудио кодек: AC3 (Dolby Digital)
Видео: XviD, 1582 kb/s, 720x448~25.000 fps
Аудио: АС-3, 384 kb/s (6h 26mn) 48.0 KHz-

Скриншоты

MI

General
Complete name : G:\видео\Pettson.i.Findus.DVDRip.avi
Format : AVI
Format/Info : Audio Video Interleave
File size : 1.37 GiB
Duration : 2h 26mn
Overall bit rate : 1 344 Kbps
Writing application : VirtualDubMod 1.5.10.2 (build 2542/release)
Writing library : VirtualDubMod build 2542/release
Video
ID : 0
Format : MPEG-4 Visual
Format settings, BVOP : 1
Format settings, QPel : No
Format settings, GMC : No warppoints
Format settings, Matrix : Default (H.263)
Muxing mode : Packed bitstream
Codec ID : DX50
Codec ID/Hint : DivX 5
Duration : 2h 26mn
Bit rate : 950 Kbps
Width : 720 pixels
Height : 448 pixels
Display aspect ratio : 1.607
Frame rate : 25.000 fps
Color space : YUV
Chroma subsampling : 4:2:0
Bit depth : 8 bits
Scan type : Progressive
Compression mode : Lossy
Bits/(Pixel*Frame) : 0.118
Stream size : 993 MiB (71%)
Writing library : DivX 6.5.1 (UTC 2007-03)
Audio
ID : 1
Format : AC-3
Format/Info : Audio Coding 3
Mode extension : CM (complete main)
Format settings, Endianness : Big
Codec ID : 2000
Duration : 2h 26mn
Bit rate mode : Constant
Bit rate : 384 Kbps
Channel(s) : 6 channels
Channel positions : Front: L C R, Side: L R, LFE
Sampling rate : 48.0 KHz
Bit depth : 16 bits
Compression mode : Lossy
Stream size : 401 MiB (29%)
Alignment : Split accross interleaves
Interleave, duration : 40 ms (1.00 video frame)
Interleave, preload duration : 500 ms
Language : Russian


Последний раз редактировалось: 3232fox (2016-06-04 14:46), всего редактировалось 1 раз
[Торрент-статистика]
[Профиль]  [ЛС] 
Показать сообщения:    
Ответить на тему

Текущее время: Сегодня 16:09

Часовой пояс: GMT + 4



Вы не можете начинать темы
Вы не можете отвечать на сообщения
Вы не можете редактировать свои сообщения
Вы не можете удалять свои сообщения
Вы не можете голосовать в опросах
Вы не можете прикреплять файлы к сообщениям
Вы не можете скачивать файлы