Спасти Санту / Saving Santa (Леон Джусен / Leon Joosen, Аарон Силман / Aaron Seelman) [2013 г., мультфильм, мюзикл, комедия, семейный, HDRip] [Лицензия]

Ответить на тему
 
Автор
Сообщение

TiZAr ®

Пол:

Стаж: 3 года 3 месяца

Сообщений: 836

Репутация: 1157 [+] [-]

Откуда: Россия

Пост 30-Ноя-2013 16:02

[Цитировать] 

Спасти Санту / Saving Santa
«На машине времени за Новым годом!»
- Год выпуска: 2013
Страна: Великобритания / Gateway Films, Prana Animation Studios, Prana Studios
Жанр: мультфильм, мюзикл, комедия, семейный
Продолжительность: 01:23:54
Перевод: Профессиональный (полное дублирование) [Лицензия]
Субтитры: нет
Оригинальная аудиодорожка: нет
Режиссер: Леон Джусен / Leon Joosen, Аарон Силман / Aaron Seelman- -Роли озвучивали:
Мартин Фриман, Тим Карри, Тим Конуэй, Пэм Феррис, Эшли Тисдейл, Джоан Коллинз, Ксавье Алькан, Крис Барри, Ноэль Кларк, Ребекка Фердинандо и др.
Описание:
Эльф Бернард — очень мил, весел, и… слегка несерьёзен. Но ему придется измениться, ведь у него впереди потрясающее и очень опасное приключение! Кто-то собирается похитить Санту и его волшебные сани, в которых можно перемещаться в разные эпохи. А без Санты Новый год никогда не наступит! Бернарду придётся переместиться во времени, сразиться со злодеем, остановить его армию, изменить прошлое, спасти Новый год и стать настоящим героем!
Качество: HDRip | Сэмпл
Формат: AVI
Видео: MPEG4, XviD, 720x384 (1.875), 23.976 fps, 1 942 Kbps (0.293 bit/pixel)
Аудио: AC-3, 48.0 KHz, 6 ch, 384 Kbps, CBR

MI

Код:
General
Complete name                            : Spasti.santy.2013.D.HDRip.1400MB.avi
Format                                   : AVI
Format/Info                              : Audio Video Interleave
File size                                : 1.37 GiB
Duration                                 : 1h 23mn
Overall bit rate                         : 2 335 Kbps
Writing application                      : VirtualDubMod 1.5.10.2 (build 2540/release)
Writing library                          : VirtualDubMod build 2540/release
Video
ID                                       : 0
Format                                   : MPEG-4 Visual
Format profile                           : Advanced Simple@L5
Format settings, BVOP                    : 2
Format settings, QPel                    : No
Format settings, GMC                     : No warppoints
Format settings, Matrix                  : Custom
Codec ID                                 : XVID
Codec ID/Hint                            : XviD
Duration                                 : 1h 23mn
Bit rate                                 : 1 942 Kbps
Width                                    : 720 pixels
Height                                   : 384 pixels
Display aspect ratio                     : 1.85:1
Frame rate                               : 23.976 fps
Color space                              : YUV
Chroma subsampling                       : 4:2:0
Bit depth                                : 8 bits
Scan type                                : Progressive
Compression mode                         : Lossy
Bits/(Pixel*Frame)                       : 0.293
Stream size                              : 1.14 GiB (83%)
Writing library                          : XviD 1.2.1 (UTC 2008-12-04)
Audio
ID                                       : 1
Format                                   : AC-3
Format/Info                              : Audio Coding 3
Mode extension                           : CM (complete main)
Format settings, Endianness              : Big
Codec ID                                 : 2000
Duration                                 : 1h 23mn
Bit rate mode                            : Constant
Bit rate                                 : 384 Kbps
Channel count                            : 6 channels
Channel positions                        : Front: L C R, Side: L R, LFE
Sampling rate                            : 48.0 KHz
Bit depth                                : 16 bits
Compression mode                         : Lossy
Stream size                              : 230 MiB (16%)
Alignment                                : Split accross interleaves
Interleave, duration                     : 42 ms (1.00 video frame)
Interleave, preload duration             : 500 ms

Скриншоты


_________________
Не стоит обращать внимания на отсутствие сидов на моих раздачах. Все мои релизы мультитрекерные - нет сидов, включите DHT.
За релизами в HD качестве обращайтесь в личку, либо отписывайтесь в теме.
[Торрент-статистика]
[Профиль]  [ЛС] 
Показать сообщения:    
Ответить на тему

Текущее время: Сегодня 12:14

Часовой пояс: GMT + 4



Вы не можете начинать темы
Вы не можете отвечать на сообщения
Вы не можете редактировать свои сообщения
Вы не можете удалять свои сообщения
Вы не можете голосовать в опросах
Вы не можете прикреплять файлы к сообщениям
Вы не можете скачивать файлы