7-ой гном / Der 7bte Zwerg (Борис Альинович / Boris Aljinovic) [2014, мультфильм, DVDRip] [Лицензия]

Ответить на тему
 
Автор
Сообщение

ArtZak ®

Пол:

Стаж: 5 лет 1 месяц

Сообщений: 3008

Репутация: 1363 [+] [-]

Откуда: Россия

Пост 18-Окт-2014 02:30

[Цитировать] 

7-ой гном / Der 7bte Zwerg- Год выпуска: 2014
Производство: Германия | Animationsfabrik Hamburg, Erfttal Film, Zipfelmützen GmbH & Co. KG
Жанр: мультфильм
Продолжительность: 01:23:59
Перевод: Профессиональный (Дублированный) [Лицензия]
Cубтитры: нет
Режиссёр: Борис Альинович / Boris Aljinovic- -Роли озвучивали:
Борис Альинович, Элвин Камерон, Нина Хаген, Норберт Хейстеркамп, Мирко Нончев, Ана Сани, Ральф Шмитц, Мартин Шнайдер, Отто Ваалкес, Густав-Петер Вёлер и др.
Роли дублировали:
Алексей Потапенко, Настя Каменских, Сергей Чихачев, Михаил Тихонов и др.
Описание:
Семь гномов отправляются в замок Фантабулараса на празднование 18-летия принцессы Розы. Умник, Ворчун, Рыжик, Силач, Соня, Бобо и Бодряк собираются хорошенько повеселиться, однако ничего не подозревают о том, что злобная колдунья Делламорта хочет испортить праздник, приведя в действие своё давнее проклятье. Неосторожный малыш Бобо случайно запускает тайный механизм проклятья и все присутствующие на празднике замерзают. Каким-то чудом в самый последний момент гномам удалось спастись. Теперь им нужно всё исправить, отыскав возлюбленного принцессы, который похищен драконом злой колдуньи.
Качество: DVDRip | Сэмпл
Формат: AVI
Видео: 720x384 (1.88:1), 25 fps, XviD build 50 ~1871 kbps avg, 0.27 bit/pixel
Аудио: 48 kHz, AC3 Dolby Digital, 3/2 (L,C,R,l,r) + LFE ch, ~448 kbps

MI

Код:
General
Complete name                            : C:\downloads\7 Gnom.2014.DVDRip.avi
Format                                   : AVI
Format/Info                              : Audio Video Interleave
File size                                : 1.37 GiB
Duration                                 : 1h 23mn
Overall bit rate                         : 2 330 Kbps
Writing application                      : VirtualDubMod 1.5.10.2 (build 2540/release)
Writing library                          : VirtualDubMod build 2540/release
Video
ID                                       : 0
Format                                   : MPEG-4 Visual
Format profile                           : Advanced Simple@L5
Format settings, BVOP                    : 2
Format settings, QPel                    : No
Format settings, GMC                     : No warppoints
Format settings, Matrix                  : Default (MPEG)
Codec ID                                 : XVID
Codec ID/Hint                            : XviD
Duration                                 : 1h 23mn
Bit rate                                 : 1 872 Kbps
Width                                    : 720 pixels
Height                                   : 384 pixels
Display aspect ratio                     : 1.85:1
Frame rate                               : 25.000 fps
Color space                              : YUV
Chroma subsampling                       : 4:2:0
Bit depth                                : 8 bits
Scan type                                : Progressive
Compression mode                         : Lossy
Bits/(Pixel*Frame)                       : 0.271
Stream size                              : 1.10 GiB (80%)
Writing library                          : XviD 1.2.1 (UTC 2008-12-04)
Audio
ID                                       : 1
Format                                   : AC-3
Format/Info                              : Audio Coding 3
Mode extension                           : CM (complete main)
Format settings, Endianness              : Big
Codec ID                                 : 2000
Duration                                 : 1h 23mn
Bit rate mode                            : Constant
Bit rate                                 : 448 Kbps
Channel count                            : 6 channels
Channel positions                        : Front: L C R, Side: L R, LFE
Sampling rate                            : 48.0 KHz
Bit depth                                : 16 bits
Compression mode                         : Lossy
Stream size                              : 269 MiB (19%)
Alignment                                : Split accross interleaves
Interleave, duration                     : 40 ms (1.00 video frame)
Interleave, preload duration             : 500 ms

Скриншоты

[Торрент-статистика]
[Профиль]  [ЛС] 
Показать сообщения:    
Ответить на тему

Текущее время: Сегодня 22:11

Часовой пояс: GMT + 4



Вы не можете начинать темы
Вы не можете отвечать на сообщения
Вы не можете редактировать свои сообщения
Вы не можете удалять свои сообщения
Вы не можете голосовать в опросах
Вы не можете прикреплять файлы к сообщениям
Вы не можете скачивать файлы