Облачно... 2: месть ГМО / Cloudy with a Chance of Meatballs 2 (Коуди Камерон / Cody Cameron, Крис Пирн / Kris Pearn) [2013 г., мультфильм, фантастика, фэнтези, комедия, семейный, HDRip] [Лицензия]

Ответить на тему
 
Автор
Сообщение

TiZAr ®

Пол:

Стаж: 3 года 3 месяца

Сообщений: 836

Репутация: 1157 [+] [-]

Откуда: Россия

Пост 03-Мар-2014 05:06

[Цитировать] 

Облачно... 2: Месть ГМО / Cloudy with a Chance of Meatballs 2
«Something big was leftover»
- Год выпуска: 2013
Страна: США / Columbia Pictures, Sony Pictures Animation, Sony Pictures Imageworks
Жанр: мультфильм, фантастика, фэнтези, комедия, семейный
Продолжительность: 01:34:49
Перевод: Профессиональный (полное дублирование) [Лицензия]
Субтитры: нет
Оригинальная аудиодорожка: нет
Режиссер: Коуди Камерон / Cody Cameron, Крис Пирн / Kris Pearn- -Роли озвучивали:
Энди Сэмберг, Нил Патрик Харрис, Анна Фэрис, Терри Крюс, Кристен Шааль, Уилл Форте, Билл Хэйдер, Бенджамин Брэтт, Джеймс Каан и др.
Описание:
Все жители острова Поплавок покинули родной дом после событий предыдущего мультфильма. Главный герой Флинт Локвуд теперь работает в компании The Live Corp на своего кумира Честера. Но ему придется оставить свой пост когда он узнает, что его печально-известная машина все ещё работает и производит на свет опасных гибридов. Флинту предстоит ещё раз спасти мир и не дать коварной машине распространить громадную еду по всему миру.
Релиз от: Torrange
Качество: HDRip | Сэмпл
Формат: AVI
Видео: 688x288 (2.39:1), 23.976 fps, XviD build 65 ~961 kbps avg, 0.20 bit/pixel
Аудио: 48 kHz, MPEG Layer 3, 2 ch, ~128.00 kbps avg

MI

Код:
General
Complete name                            : E:\downloads\Oblachno.Mest.GMO.2013.HDRip.745Mb.avi
Format                                   : AVI
Format/Info                              : Audio Video Interleave
File size                                : 745 MiB
Duration                                 : 1h 34mn
Overall bit rate                         : 1 099 Kbps
Movie name                               : Oblachno.Mest.GMO.2013.HDRip.745Mb.[torrange.org]
Writing application                      : VirtualDubMod 1.5.10.2 (build 2540/release)
Writing library                          : VirtualDubMod build 2540/release
Copyright                                : http://torrange.org
Video
ID                                       : 0
Format                                   : MPEG-4 Visual
Format profile                           : Advanced Simple@L5
Format settings, BVOP                    : 2
Format settings, QPel                    : No
Format settings, GMC                     : No warppoints
Format settings, Matrix                  : Default (MPEG)
Codec ID                                 : XVID
Codec ID/Hint                            : XviD
Duration                                 : 1h 34mn
Bit rate                                 : 962 Kbps
Width                                    : 688 pixels
Height                                   : 288 pixels
Display aspect ratio                     : 2.40:1
Frame rate                               : 23.976 fps
Color space                              : YUV
Chroma subsampling                       : 4:2:0
Bit depth                                : 8 bits
Scan type                                : Progressive
Compression mode                         : Lossy
Bits/(Pixel*Frame)                       : 0.202
Stream size                              : 652 MiB (88%)
Writing library                          : XviD 65
Audio
ID                                       : 1
Format                                   : MPEG Audio
Format version                           : Version 1
Format profile                           : Layer 3
Codec ID                                 : 55
Codec ID/Hint                            : MP3
Duration                                 : 1h 34mn
Bit rate mode                            : Constant
Bit rate                                 : 128 Kbps
Channel count                            : 2 channels
Sampling rate                            : 48.0 KHz
Compression mode                         : Lossy
Stream size                              : 86.8 MiB (12%)
Alignment                                : Aligned on interleaves
Interleave, duration                     : 42 ms (1.00 video frame)
Interleave, preload duration             : 504 ms

Скриншоты


-

_________________
Не стоит обращать внимания на отсутствие сидов на моих раздачах. Все мои релизы мультитрекерные - нет сидов, включите DHT.
За релизами в HD качестве обращайтесь в личку, либо отписывайтесь в теме.
[Торрент-статистика]
[Профиль]  [ЛС] 
Показать сообщения:    
Ответить на тему

Текущее время: Сегодня 14:49

Часовой пояс: GMT + 4



Вы не можете начинать темы
Вы не можете отвечать на сообщения
Вы не можете редактировать свои сообщения
Вы не можете удалять свои сообщения
Вы не можете голосовать в опросах
Вы не можете прикреплять файлы к сообщениям
Вы не можете скачивать файлы