Облачно... 2: месть ГМО / Cloudy with a Chance of Meatballs 2 (Коуди Камерон / Cody Cameron, Крис Пирн / Kris Pearn) [2013 г., мультфильм, фантастика, фэнтези, комедия, семейный, HDRip] [Лицензия]

Ответить на тему
 
Автор
Сообщение

TiZAr ®

Пол:

Стаж: 3 года 3 месяца

Сообщений: 836

Репутация: 1157 [+] [-]

Откуда: Россия

Пост 03-Мар-2014 03:03

[Цитировать] 

Облачно... 2: Месть ГМО / Cloudy with a Chance of Meatballs 2
«Something big was leftover»
- Год выпуска: 2013
Страна: США / Columbia Pictures, Sony Pictures Animation, Sony Pictures Imageworks
Жанр: мультфильм, фантастика, фэнтези, комедия, семейный
Продолжительность: 01:34:49
Перевод: Профессиональный (полное дублирование) [Лицензия]
Субтитры: нет
Оригинальная аудиодорожка: нет
Режиссер: Коуди Камерон / Cody Cameron, Крис Пирн / Kris Pearn- -Роли озвучивали:
Энди Сэмберг, Нил Патрик Харрис, Анна Фэрис, Терри Крюс, Кристен Шааль, Уилл Форте, Билл Хэйдер, Бенджамин Брэтт, Джеймс Каан и др.
Описание:
Все жители острова Поплавок покинули родной дом после событий предыдущего мультфильма. Главный герой Флинт Локвуд теперь работает в компании The Live Corp на своего кумира Честера. Но ему придется оставить свой пост когда он узнает, что его печально-известная машина все ещё работает и производит на свет опасных гибридов. Флинту предстоит ещё раз спасти мир и не дать коварной машине распространить громадную еду по всему миру.
Качество: HDRip | Сэмпл
Формат: AVI
Видео: 720x304 (2.37:1), 23.976 fps, XviD build 50 ~1742 kbps avg, 0.33 bit/pixel
Аудио: 48 kHz, AC3 Dolby Digital, 3/2 (L,C,R,l,r) + LFE ch, ~448.00 kbps avg

MI

Код:
General
Complete name                            : E:\downloads\Oblachno.2.Mest.GMO.2013.D.HDRip.1.46Gb.avi
Format                                   : AVI
Format/Info                              : Audio Video Interleave
File size                                : 1.46 GiB
Duration                                 : 1h 34mn
Overall bit rate                         : 2 200 Kbps
Writing application                      : VirtualDubMod 1.5.10.2 (build 2540/release)
Writing library                          : VirtualDubMod build 2540/release
Video
ID                                       : 0
Format                                   : MPEG-4 Visual
Format profile                           : Advanced Simple@L5
Format settings, BVOP                    : 2
Format settings, QPel                    : No
Format settings, GMC                     : 3 warppoints
Format settings, Matrix                  : Custom
Codec ID                                 : XVID
Codec ID/Hint                            : XviD
Duration                                 : 1h 34mn
Bit rate                                 : 1 743 Kbps
Width                                    : 720 pixels
Height                                   : 304 pixels
Display aspect ratio                     : 2.35:1
Frame rate                               : 23.976 fps
Color space                              : YUV
Chroma subsampling                       : 4:2:0
Bit depth                                : 8 bits
Scan type                                : Progressive
Compression mode                         : Lossy
Bits/(Pixel*Frame)                       : 0.332
Stream size                              : 1.15 GiB (79%)
Writing library                          : XviD 1.2.1 (UTC 2008-12-04)
Audio
ID                                       : 1
Format                                   : AC-3
Format/Info                              : Audio Coding 3
Mode extension                           : CM (complete main)
Format settings, Endianness              : Big
Codec ID                                 : 2000
Duration                                 : 1h 34mn
Bit rate mode                            : Constant
Bit rate                                 : 448 Kbps
Channel count                            : 6 channels
Channel positions                        : Front: L C R, Side: L R, LFE
Sampling rate                            : 48.0 KHz
Bit depth                                : 16 bits
Compression mode                         : Lossy
Stream size                              : 304 MiB (20%)
Alignment                                : Split accross interleaves
Interleave, duration                     : 42 ms (1.00 video frame)
Interleave, preload duration             : 500 ms

_________________
Не стоит обращать внимания на отсутствие сидов на моих раздачах. Все мои релизы мультитрекерные - нет сидов, включите DHT.
За релизами в HD качестве обращайтесь в личку, либо отписывайтесь в теме.
[Торрент-статистика]
[Профиль]  [ЛС] 
Показать сообщения:    
Ответить на тему

Текущее время: Сегодня 00:20

Часовой пояс: GMT + 4



Вы не можете начинать темы
Вы не можете отвечать на сообщения
Вы не можете редактировать свои сообщения
Вы не можете удалять свои сообщения
Вы не можете голосовать в опросах
Вы не можете прикреплять файлы к сообщениям
Вы не можете скачивать файлы