Альфа и Омега: Приключения праздничного воя / Alpha and Omega 2: A Howl-iday Adventure (Ричард Рич / Richard Rich) [2013, мультфильм, комедия, приключения, семейный, BDRip] MVO [Baibako]

Ответить на тему
 
Автор
Сообщение

ArtZak ®

Пол:

Стаж: 5 лет 1 месяц

Сообщений: 3008

Репутация: 1363 [+] [-]

Откуда: Россия

Пост 15-Дек-2013 23:25

[Цитировать] 

Альфа и Омега: Приключения праздничного воя
Alpha and Omega 2: A Howl-iday Adventure
- Страна: США
Жанр: мультфильм, комедия, приключения, семейный
Продолжительность: 00:45:07
Год выпуска: 2013
Перевод: Любительский (многоголосый закадровый) [Baibako]
Субтитры: нет
Режиссёр: Ричард Рич / Richard Rich- -Роли озвучивали:
Бен Дискин, Кейт Хиггинс, Blackie Rose, Lindsay Torrance, Liza West, Трэйси Пфау, Bill Lader, Meryl Leigh, Шон Жерардо, Chris Smith и др.
Описание:
Кейт и Хамфри и их 3 волчат, готовятся к празднованию их первой совместной зимы, когда их самый маленький детеныш, Рант, таинственным образом исчезает.
Доп. информация: т. к. хронометраж мультфильма небольшой, рип делался в соответствии с настройками под рипы 1,46 Гб.
Качество: BDRip | Исходник: Blu-ray Remux | Сэмпл
Формат: AVI
Видео: MPEG4, XviD, 720x400 (16:9), 23.976 fps, 1 841 Kbps (0.267 bit/pixel)
Аудио: AC-3, 48.0 KHz, 6 ch, 448 Kbps, CBR

MI

Код:
General
Complete name                            : D:\Alpha.And.Omega.2.P.avi
Format                                   : AVI
Format/Info                              : Audio Video Interleave
File size                                : 742 MiB
Duration                                 : 45mn 7s
Overall bit rate                         : 2 298 Kbps
Writing application                      : VirtualDubMod 1.5.10.2 (build 2540/release)
Writing library                          : VirtualDubMod build 2540/release
Video
ID                                       : 0
Format                                   : MPEG-4 Visual
Format profile                           : Advanced Simple@L5
Format settings, BVOP                    : 2
Format settings, QPel                    : No
Format settings, GMC                     : No warppoints
Format settings, Matrix                  : Default (H.263)
Codec ID                                 : XVID
Codec ID/Hint                            : XviD
Duration                                 : 45mn 7s
Bit rate                                 : 1 841 Kbps
Width                                    : 720 pixels
Height                                   : 400 pixels
Display aspect ratio                     : 16:9
Frame rate                               : 23.976 fps
Color space                              : YUV
Chroma subsampling                       : 4:2:0
Bit depth                                : 8 bits
Scan type                                : Progressive
Compression mode                         : Lossy
Bits/(Pixel*Frame)                       : 0.267
Stream size                              : 594 MiB (80%)
Writing library                          : XviD 1.2.1 (UTC 2008-12-04)
Audio
ID                                       : 1
Format                                   : AC-3
Format/Info                              : Audio Coding 3
Mode extension                           : CM (complete main)
Format settings, Endianness              : Big
Codec ID                                 : 2000
Duration                                 : 45mn 7s
Bit rate mode                            : Constant
Bit rate                                 : 448 Kbps
Channel count                            : 6 channels
Channel positions                        : Front: L C R, Side: L R, LFE
Sampling rate                            : 48.0 KHz
Bit depth                                : 16 bits
Compression mode                         : Lossy
Stream size                              : 145 MiB (19%)
Alignment                                : Split accross interleaves
Interleave, duration                     : 42 ms (1.00 video frame)
Interleave, preload duration             : 500 ms

Скриншоты



[Торрент-статистика]
[Профиль]  [ЛС] 
Показать сообщения:    
Ответить на тему

Текущее время: Сегодня 12:10

Часовой пояс: GMT + 4



Вы не можете начинать темы
Вы не можете отвечать на сообщения
Вы не можете редактировать свои сообщения
Вы не можете удалять свои сообщения
Вы не можете голосовать в опросах
Вы не можете прикреплять файлы к сообщениям
Вы не можете скачивать файлы