Марина Абрамович: В присутствии художника / Marina Abramovic: The Artist Is Present [2012 г., документальный, DVDRip] |Лицензия|

Ответить на тему
 
Автор
Сообщение

ikarus-66 ®

Пол:

Стаж: 4 года 2 месяца

Сообщений: 3

Репутация: 0 [+] [-]

Пост 01-Окт-2012 22:39

[Цитировать] 

Марина Абрамович: В присутствии художника / Marina Abramovic: The Artist Is Present (2012) DVDRip - Русское название: Марина Абрамович: В присутствии художника
Оригинальное название: Marina Abramovic: The Artist Is Present
Год выпуска: 2012
Производство: США / AVRO Television, Dakota Group, Show Of Force
Жанр: документальный, биография, история
Продолжительность: 01:41:21
Перевод: Профессиональный многоголосый |Лицензия|
Язык cубтитров: Отсутствуют-Дата мировой премьеры: 20 января 2012
Дата выхода DVD релиза: 6 сентября 2012, «Вольга»-Режиссер: Мэттью Эйкерс, Джефф Дюпре-Продюсер: ер Маро Чермайефф, Джефф Дюпре, Нэнси Абрахам-Актеры: Марина Абрамович, Улай, Клаус Бизенбах, Дэвид Баллиано, Крисси Айлз, Артур Данто, Дэвид Блейн, Джеймс Франко-Описание фильма:
Югославская художница Марина Абрамович называет себя "бабушкой перформанса". И у нее есть на то все основания. Сегодня в этом виде актуального искусства ей, пожалуй, нет равных, а впервые она обратила на себя внимание арт-сообщества еще в 1974 году.- -Качество видео: DVDRip
Формат: AVI
Видеокодек: XviD
Битрейт видео: ~1605 Кбит/сек
Размер кадра: 720x400
Аудио: AC3, 448 kb/s (6 ch)
-

MediaInfo

Общее
Полное имя : E:\Загрузка\Marina.Abromovic.The.Artist.Is.Present.2012.DVDRip.avi
Формат : AVI
Формат/Информация : Audio Video Interleave
Размер файла : 1,46 Гбайт
Продолжительность : 1 ч. 41 м.
Общий поток : 2063 Кбит/сек
Название фильма : Marina.Abromovic.The.Artist.Is.Present.2012.DVDRip
Жанр : Documentary
Программа кодирования : VirtualDubMod 1.5.10.2 (build 2540/release)
Формат оригинала/Имя : Movie
Видео
Идентификатор : 0
Формат : MPEG-4 Visual
Профиль формата : Advanced Simple@L5
Параметр BVOP формата : Нет
Параметр QPel формата : Нет
Параметр GMC формата : Без точки перехода
Параметр матрицы формата : Выборочная
Идентификатор кодека : XVID
Идентификатор кодека/Подсказка : XviD
Продолжительность : 1 ч. 41 м.
Битрейт : 1606 Кбит/сек
Ширина : 720 пикселей
Высота : 400 пикселей
Соотношение сторон : 16:9
Частота кадров : 25,000 кадров/сек
Цветовое пространство : YUV
Субдискретизация насыщенности : 4:2:0
Битовая глубина : 8 бит
Тип развёртки : Прогрессивная
Метод сжатия : С потерями
Бит/(Пиксели*Кадры) : 0.223
Размер потока : 1,14 Гбайт (78%)
Библиотека кодирования : XviD 1.2.1 (UTC 2008-12-04)
Аудио
Идентификатор : 1
Формат : AC-3
Формат/Информация : Audio Coding 3
Расширение режима : CM (complete main)
Параметр Endianness формата : Big
Идентификатор кодека : 2000
Продолжительность : 1 ч. 41 м.
Вид битрейта : Постоянный
Битрейт : 448 Кбит/сек
Каналы : 6 каналов
Расположение каналов : Front: L C R, Side: L R, LFE
Частота : 48,0 КГц
Битовая глубина : 16 бит
Метод сжатия : С потерями
Размер потока : 325 Мбайт (22%)
Выравнивание : Разделение по промежуткам
Продолжительность промежутка : 40 мс. (1,00 видеокадр)
Время предзагрузки промежутка : 500 мс.
-

Скриншоты

Приятного просмотра
и не забываем говорить СПАСИБО...
-


Последний раз редактировалось: ikarus-66 (2012-10-01 23:10), всего редактировалось 2 раз(а)
[Торрент-статистика]
[Профиль]  [ЛС] 

Волк

Пол:

Стаж: 5 лет

Сообщений: 689

Репутация: 292 [+] [-]

Откуда: Армения

Пост 01-Окт-2012 22:45 (спустя 6 минут)

[Цитировать] 

ikarus-66, Предоставте нормальную информацию о формате фаила!!!И сделаите несколько скриншотов с размером.
[Торрент-статистика]
[Профиль]  [ЛС] 

maldoror

Стаж: 4 года 2 месяца

Сообщений: 1

Репутация: 0 [+] [-]

Пост 01-Окт-2012 23:05 (спустя 19 минут)

[Цитировать] 

ikarus-66 еще раз Вам большое спасибо за Марину!
[Торрент-статистика]
[Профиль]  [ЛС] 

Волк

Пол:

Стаж: 5 лет

Сообщений: 689

Репутация: 292 [+] [-]

Откуда: Армения

Пост 01-Окт-2012 23:26 (спустя 21 минута)

[Цитировать] 

ikarus-66, Отлично оформил спасибо ad
[Торрент-статистика]
[Профиль]  [ЛС] 

ikarus-66 ®

Пол:

Стаж: 4 года 2 месяца

Сообщений: 3

Репутация: 0 [+] [-]

Пост 01-Окт-2012 23:28 (спустя 2 минуты)

[Цитировать] 

))) красиво
с теми скринами было веселей)
[Торрент-статистика]
[Профиль]  [ЛС] 

Волк

Пол:

Стаж: 5 лет

Сообщений: 689

Репутация: 292 [+] [-]

Откуда: Армения

Пост 01-Окт-2012 23:31 (спустя 3 минуты)

[Цитировать] 

18315красиво
на с теми скринами было веселей)
Да но не актуально и не по правилам я думал вам понравитса в следующй раз может меня не быть и раздача останетса недо......!!!!Вместо спасибо
[Торрент-статистика]
[Профиль]  [ЛС] 

ikarus-66 ®

Пол:

Стаж: 4 года 2 месяца

Сообщений: 3

Репутация: 0 [+] [-]

Пост 01-Окт-2012 23:43 (спустя 11 минут)

[Цитировать] 

спасибо
спасибо
спасибо
ну да иногда забываеш самое простое но главное!
[Торрент-статистика]
[Профиль]  [ЛС] 
Показать сообщения:    
Ответить на тему

Текущее время: Сегодня 12:08

Часовой пояс: GMT + 4



Вы не можете начинать темы
Вы не можете отвечать на сообщения
Вы не можете редактировать свои сообщения
Вы не можете удалять свои сообщения
Вы не можете голосовать в опросах
Вы не можете прикреплять файлы к сообщениям
Вы не можете скачивать файлы