В поле зрения / Person of Interest / Сезон: 2 / Серии: 1-22 из 22 (Ричард Дж. Льюис, Дэвид Семел) [2012, Триллер, драма, HDTVRip] MVO (NewStudio)

Ответить на тему
 
Автор
Сообщение

awk05 ®

Пол:

Стаж: 8 лет 4 месяца

Сообщений: 1334

Репутация: 278 [+] [-]

Откуда: Западная Украина Ривне

Пост 08-Дек-2012 21:45

[Цитировать] 

-В поле зрения 2 / Person of Interest 2-Добавлена 22 серия- Год выпуска: 2012
Страна: США
Жанр: драма, криминал, детектив
Продолжительность: 44 мин
Перевод:Профессиональный (многоголосый, закадровый) NewStudio-Режиссер: Ричард Дж. Льюис, Дэвид Семел-В ролях: Джеймс Кэвизел, Майкл Эмерсон, Узиманн, Тараджи П. Хенсон, Кевин Чэпмен, Куртеней Тейлор, Крис Чок, Жермен Кроуфорд, Брайан Д’Арси Джеймс

Описание: Предполагаемо погибший бывший агент ЦРУ Риз объединяется с таинственным миллионером чтобы предотвращать преступления. Подготовка Риза в проведении операций под прикрытием привлекает внимание миллионера Финча, гения-программиста, который изобрел программу, позволяющую предсказывать преступные склонности людей на базе анализа поведения. Используя последние достижения техники, эти двое часто преступают закон, используя навыки Риза и бесконечное богатство Финча, и останавливают преступников еще до совершения преступления. Действия Риза привлекают к себе внимание детектива Картер из отдела убийств и полицейского Фуско, которого Риз использует в своих целях. Риз и Финч понимают, что правильный человек с правильной информацией в нужное время и в нужном месте может изменить все.-
-Над релизом работали:
Озвучка: Петр Иващенко (Гланц), Константин Погодаев, Елена Шульман
Перевод: Наталья Проскурина
Редактор: Графт
Подготовка видео: Koss
Работа со звуком: Koss
Постер: Vortex-Качество: HDTVRip
Контейнер: AVI
Видео кодек: XviD
Аудио кодек: MP3 (MPEG1 Layer 3)
Видео: 720x400 (16/9), 23.976 fps, 1 313 Kbps (0.190 bit/pixel)
Аудио: 48.0 KHz, 2 ch, 128 Kbps / NewStudio /
-КиноПоиск-Сезон полностью, продолжение в сентябре 2013 года.-

МІ

Расположение: E:\СЕРИАЛЫ\Person.of.Interest.S02.rus\Person.of.Interest.S02E01.HDTVRip.NewStudio.TV.Proper.avi
Имя файла: Person.of.Interest.S02E01.HDTVRip.NewStudio.TV.Proper.avi
Формат файла: .avi (AVI)
Размер файла: 500.12 MB
Длительность: 44mn 4s
Навигация по главам: Нет
Bitrate (все потоки): 1 586 Kbps
Тип битрейта (все потоки): Variable
...при помощи: VirtualDubMod 1.5.10.2 (build 2540/release)
...с использованием: VirtualDubMod build 2540/release
Название: Person.of.Interest.S02E01.HDTVRip.NewStudio.TV.Proper
Тип потока: Видео
Длительность: 00:44:04
Кодек: MPEG-4 Visual
Кодек/Профиль: Advanced Simple@L5
Кодек/ID: XVID
Размеры изображения: 720 x 400 (16:9)
Частота кадров: 23.976 fps
Размер потока: 414 MiB (83%)
Битрейт: 1 313 Kbps
Цветовое пространство: YUV
Тип развёртки: Progressive
Bits/(Pixel*Frame): 0.190
Глубина пикселя: 8 bits
Библиотека кодирования: XviD 64
Тип потока: Звук #1
Длительность: 00:44:04.680
Кодек: MPEG Audio
Кодек/ID: 55
Частота дискретизации: 48.0 KHz
Каналы: 2 channels
Битрейт: 128 Kbps
Тип битрейта: Constant
Размер потока: 40.4 MiB (8%)
Тип потока: Звук #2
Длительность: 00:44:04.296
Кодек: MPEG Audio
Кодек/ID: 55
Частота дискретизации: 48.0 KHz
Каналы: 2 channels
Битрейт: 128 Kbps
Тип битрейта: Variable
Размер потока: 40.2 MiB (8%)

Скриншоты

«СЕЗОН 1» «СЕЗОН 2» «СЕЗОН 3»

_________________


Последний раз редактировалось: awk05 (2013-10-25 13:20), всего редактировалось 9 раз(а)
[Торрент-статистика]
[Профиль]  [ЛС] 

kaliasa

Пол:

Стаж: 8 лет 7 месяцев

Сообщений: 112

Репутация: 87 [+] [-]

Пост 18-Фев-2013 12:02 (спустя 2 месяца 9 дней)

[Цитировать] 

Вроде NewStudio занимается двухолоской но не как многолоской.
[Торрент-статистика]
[Профиль]  [ЛС] 

awk05 ®

Пол:

Стаж: 8 лет 4 месяца

Сообщений: 1334

Репутация: 278 [+] [-]

Откуда: Западная Украина Ривне

Пост 19-Фев-2013 16:20 (спустя 1 день 4 часа)

[Цитировать] 

23657Вроде NewStudio занимается двухолоской но не как многолоской.
http://newstudiogroup.tv/viewtopic.php?t=6902

_________________
[Торрент-статистика]
[Профиль]  [ЛС] 

olegs5

Пол:

Стаж: 7 лет 5 месяцев

Сообщений: 6

Репутация: 0 [+] [-]

Откуда: Оттуда

Пост 13-Май-2013 12:32 (спустя 2 месяца 21 день)

[Цитировать] 

Даже не ожидал, что так быстро появится... Раздающему - респект!

_________________
Ушел лечить нервы... Буду поздно, пьяный и счастливый...
[Торрент-статистика]
[Профиль]  [ЛС] 

ttan

Пол:

Стаж: 8 лет 6 месяцев

Сообщений: 594

Репутация: 379 [+] [-]

Откуда: где - то на Севере ...

Пост 13-Май-2013 23:04 (спустя 10 часов)

[Цитировать] 

не качается ...
выдаёт ошибку : Устройство не готово (WriteToDisk) ...
жаль ... bl

_________________
[Торрент-статистика]
[Профиль]  [ЛС] 

Chet

Пол:

Стаж: 9 лет

Сообщений: 1764

Репутация: 368 [+] [-]

Откуда: UA

Пост 13-Май-2013 23:20 (спустя 15 минут)

[Цитировать] 

27002Устройство не готово (WriteToDisk) ...
а куда запись идёт? на какой носитель? это у тебя там что-то
[Торрент-статистика]
[Профиль]  [ЛС] 

ttan

Пол:

Стаж: 8 лет 6 месяцев

Сообщений: 594

Репутация: 379 [+] [-]

Откуда: где - то на Севере ...

Пост 13-Май-2013 23:50 (спустя 29 минут)

[Цитировать] 

27007на какой носитель
на жёсткий выносной диск ...
после этих 2х попыток качаю туда же 3 кинушки ...
и этот же фильм, но с другого сайта ...
и ничего ... впрочем, как и всегда ...
27007это у тебя там что-то
мы стали близки как никогда ...
мне радоваться или огорчаться ? bq

_________________
[Торрент-статистика]
[Профиль]  [ЛС] 

awk05 ®

Пол:

Стаж: 8 лет 4 месяца

Сообщений: 1334

Репутация: 278 [+] [-]

Откуда: Западная Украина Ривне

Пост 14-Май-2013 00:07 (спустя 17 минут)

[Цитировать] 

Просил знакомого скачать, ЗАГРУЗКА идет нормально. ????????????

_________________
[Торрент-статистика]
[Профиль]  [ЛС] 

ArtZak

Пол:

Стаж: 8 лет 11 месяцев

Сообщений: 2831

Репутация: 1366 [+] [-]

Откуда: Россия

Пост 14-Май-2013 00:37 (спустя 30 минут)

[Цитировать] 

awk05, не переживай - раздача живая.
[Торрент-статистика]
[Профиль]  [ЛС] 
Показать сообщения:    
Ответить на тему

Текущее время: Сегодня 09:43

Часовой пояс: GMT + 4



Вы не можете начинать темы
Вы не можете отвечать на сообщения
Вы не можете редактировать свои сообщения
Вы не можете удалять свои сообщения
Вы не можете голосовать в опросах
Вы не можете прикреплять файлы к сообщениям
Вы не можете скачивать файлы