Лютер / Luther/ сезон 3/ Cерия 1-4 (4) (Сэм Миллер) [2013 г., драма, криминал, детектив, HDTVRip] "sf@irat"

Ответить на тему
 
Автор
Сообщение

3232fox ®

Пол:

Стаж: 8 лет

Сообщений: 586

Репутация: 426 [+] [-]

Откуда: Крым,Россия

Пост 08-Авг-2013 00:16

[Цитировать] 

-Лютер / Luther--Год выпуска: 2013
Страна: Великобритания
Жанр: драма, криминал, детектив
Продолжительность: 4 x ~ 01:00:00
Перевод: Любительский (одноголосый) "sf@irat"--Режиссер: Сэм Миллер--В ролях: Идрис Эльба, Рут Уилсон, Уоррен Браун, Стивен Макинтош, Индира Варма, Саския Ривз--Описание: Драматическая психологическая картина, в которой рассказывается о детективе, обладающем гениальными способностями в своём деле, однако скрывающем своих внутренних демонов. На самом деле он способен на такие же страшные преступления, что и те отбросы общества, за которыми он охотится…--Тип релиза: HDTVRip
Контейнер: AVI
Видео кодек: XviD
Аудио кодек: MP3 (MPEG1 Layer 3)
Видео: XviD, ~ 1300 Кбит/с, 720x400
Аудио: MP3, 2 ch, 192 Кбит/с--

Скриншоты

MI

General
Complete name : G:\видео\Luther.s03.sf@irat\Luther.s03e01.sf@irat.avi
Format : AVI
Format/Info : Audio Video Interleave
File size : 577 MiB
Duration : 57mn 30s
Overall bit rate : 1 402 Kbps
Writing application : Lavf54.25.105
Video
ID : 0
Format : MPEG-4 Visual
Format profile : Simple@L3
Format settings, BVOP : No
Format settings, QPel : No
Format settings, GMC : No warppoints
Format settings, Matrix : Default (H.263)
Codec ID : XVID
Codec ID/Hint : XviD
Duration : 57mn 30s
Bit rate : 1 210 Kbps
Width : 720 pixels
Height : 400 pixels
Display aspect ratio : 16:9
Frame rate : 25.000 fps
Color space : YUV
Chroma subsampling : 4:2:0
Bit depth : 8 bits
Scan type : Progressive
Compression mode : Lossy
Bits/(Pixel*Frame) : 0.168
Stream size : 498 MiB (86%)
Writing library : XviD 64
Audio
ID : 1
Format : MPEG Audio
Format version : Version 1
Format profile : Layer 3
Codec ID : 55
Codec ID/Hint : MP3
Duration : 57mn 30s
Bit rate mode : Variable
Bit rate : 160 Kbps
Channel(s) : 2 channels
Sampling rate : 48.0 KHz
Compression mode : Lossy
Stream size : 73.8 MiB (13%)
Alignment : Aligned on interleaves
Interleave, duration : 24 ms (0.60 video frame)
[Торрент-статистика]
[Профиль]  [ЛС] 
Показать сообщения:    
Ответить на тему

Текущее время: Сегодня 18:54

Часовой пояс: GMT + 4



Вы не можете начинать темы
Вы не можете отвечать на сообщения
Вы не можете редактировать свои сообщения
Вы не можете удалять свои сообщения
Вы не можете голосовать в опросах
Вы не можете прикреплять файлы к сообщениям
Вы не можете скачивать файлы