4400 / Четыре тысячи четыреста / The 4400 / Сезон: 3 /Серии: 1-13 из 13 (Ив Симоно / Yves Simoneau) [2006 г., фантастика, мистика, DVDRip] (Рен ТВ)

Ответить на тему
 
Автор
Сообщение

awk05 ®

Пол:

Стаж: 8 лет 7 месяцев

Сообщений: 1334

Репутация: 278 [+] [-]

Откуда: Западная Украина Ривне

Пост 30-Окт-2013 17:30

[Цитировать] 

-4400 / Четыре тысячи четыреста / The 4400- Год выпуска: 2006
Страна: США
Жанр: фантастика, мистика
Продолжительность: ~ 40 минут серия (13 серий)
Перевод: Профессиональный (полное дублирование) (Рен ТВ)
Режиссер: Ив Симоно / Yves Simoneau-В ролях: Джоел Гретш /Joel Gretsch/, Жаклин МакКензи /Jacqueline McKenzie/, Лаура Аллен /Laura Allen/, Питер Койот /Peter Coyote/, Чад Фауст /Chad Faust/, Майкл Мориарти /Michael Moriarty/, Патрик Флюгер /Patrick Flueger/, Джесси Хатч /Jesse Hutch/-Описание: Существует огромное количество историй о похищении людей инопланетянами. По секретным данным 4400 из них вернулись обратно на Землю. Эти люди столкнулись с чем то неопознанным. Они не знали, что случилось и почему. На некоторых это никак не повлияло, а некоторые получили определенные сверхъестественные способности, как хорошие, так и плохие. Огромный шар света приближается к Земле.Страны по всему миру запускают ракеты в попытках уничтожить его, пока он не уничтожил жизнь на земле. Но вместо неименуемой катастрофы – тысячи людей, вернувшихся из инопланетного заключения. Они остались без каких-либо воспоминаний о прошедших событиях. Каждый из них отсутствовал от нескольких месяцев до десятков лет, но не один из них не состарился ни на день...Всех садят под карантин, но вскоре отпускают обратно в их семьи..-Качество: DVDRip
Формат: AVI
Видео кодек: XviD
Аудио кодек: MP3
Видео: 576x320 (1.80:1), 25 fps, XviD MPEG-4 ~1031 kbps avg, 0.22 bit/pixel
Аудио: 44.100 kHz, MPEG Layer 3, 2 ch, ~128.00 kbps avg-КиноПоиск- -

МI

Имя файла: The.4400.s03e01.avi
Формат файла: .avi (AVI)
Размер файла: 326.79 MB
Длительность: 39mn 4s
Навигация по главам: Нет
Битрейт (все потоки): 1 169 Kbps
Создан при помощи: VirtualDubMod 1.5.10.2 (build 2540/release)
Использовалась библиотека: VirtualDubMod build 2540/release
Обложка: Отсутствует
Название: The.4400.s03e01
Тип потока: Видео
Длительность: 00:39:04
Кодек: MPEG-4 Visual
Кодек/профиль: Advanced Simple@L5
Кодек/ID: XVID
Размеры изображения: 576 x 320 (16:9)
Частота кадров: 25.000 fps
Размер потока: 288 MiB (88%)
Битрейт: 1 031 Kbps
Метод сжатия: Lossy
Библиотека кодирования: XviD 1.1.2 (UTC 2006-11-01)
Цветовое пространство: YUV
Тип развёртки: Progressive
Глубина: 8 bits
Тип потока: Звук #1
Длительность: 00:39:04.960
Кодек: MPEG Audio
Кодек/профиль: Layer 3
Кодек/ID: 55
Частота дискретизации: 44.1 KHz
Каналов: 2 channels
Битрейт: 128 Kbps
Битрейт/тип: Constant
Размер потока: 35.8 MiB (11%)
Метод сжатия: Lossy

Награды и номинации

Премия Киноакадемии научной фантастики, фэнтези и ужасов (2006)
- Номинация на приз «Сатурн» в категории «Лучший сериал»
Премия Киноакадемии научной фантастики, фэнтези и ужасов (2005)
- Номинация на приз «Сатурн» в категории «Лучший сериал»
Премия «Эмми» (2005)
- Номинация на приз «Эмми» в категории «Выдающийся сериал»
- Номинация на приз «Эмми» в категории «Выдающийся сценарий для сериала»
- Номинация на приз «Эмми» в категории «Лучшая операторская работа в сериале» (Томас Берстин)
Премия кино и ТВ «BMI» (2006)
- Приз (награждены композиторы сериала)
Премия «Спутник» (2005)
- Номинация на приз «Золотой спутник» в категории «Лучший сериал»
Премия «Юный артист» (2006)
- Номинация на приз «Юный артист» в категории «Лучшее актерское исполнение в ТВ-сериале (Драма) – Актриса второго плана» (Кончита Кэмпбелл)
Премия «Юный артист» (2005)
- Номинация на приз «Юный артист» в категории «Лучшее актерское исполнение в ТВ-сериале (Драма) – Актриса второго плана» (Кончита Кэмпбелл)

Название серий 3-го сезона

3x1- "The New World: Part 1"(Новый Мир, часть I )
3x2- "The New World: Part 2"(Новый Мир, часть II)
3x3 "Being Tom Baldwin" (Быть Томом Болдуином)
3x4 "Gone: Part 1" (Пропавшие часть 1)
3x5 "Gone: Part 2" (Пропавшие часть 1)
3x6 "Graduation Day" ( Выпускной)
3x7 "Home Front" ("Личный фронт")
3x8 "Blink" ("Блинк")
3x9 "The Ballad Of Kevin And Tess" ("Баллада о Кевине и Тэсс")
3x10 "The Starzl Mutation" ("Мутация Старцла")
3x11 "The Gospel According To Collier" ("Евангелие от Коллиера")
3x12 "Terrible Swift Sword" ("Ужасный быстрый меч")
3x13 "Fifty-Fifty" ("Пятьдесят на пятьдесят")
«СЕЗОН 1» «СЕЗОН 2» «СЕЗОН 3» «СЕЗОН 4»

_________________
[Торрент-статистика]
[Профиль]  [ЛС] 
Показать сообщения:    
Ответить на тему

Текущее время: Сегодня 19:39

Часовой пояс: GMT + 4



Вы не можете начинать темы
Вы не можете отвечать на сообщения
Вы не можете редактировать свои сообщения
Вы не можете удалять свои сообщения
Вы не можете голосовать в опросах
Вы не можете прикреплять файлы к сообщениям
Вы не можете скачивать файлы