Время Синдбада / Сезон: 4 / Серии: 1-24 из 24 (Ким Дружинин, Ольга Кандидатова, Кирилл Капица) [2012 г., Боевик, Приключения, Криминал, SATRip]

Ответить на тему
 
Автор
Сообщение

awk05 ®

Пол:

Стаж: 8 лет 4 месяца

Сообщений: 1334

Репутация: 275 [+] [-]

Откуда: Западная Украина Ривне

Пост 21-Мар-2013 21:18

[Цитировать] 

---Время Синдбада--
Год выпуска: 2013
Производство:Форвард-Фильм, Прогресс-Студия
Жанр: Боевик, Приключения, Сериал
Сезон/Серия: Сезон:4 /Серия 1-24 из 24
Продолжительность:24 x ~ 00:46:01
Субтитры: Нет--Режиссёр: Ким Дружинин, Ольга Кандидатова, Кирилл Капица--В ролях: Андрей Смелов, Валерий Гришко, Игорь Иванов, Яков Кучеревский, Александр Блок, Арсений Мыцык, Татьяна Шахматова, Маргарита Бычкова, Андрей Аверков, Марьяна Анохина, Петр Капица (II)--Описание:Синдбад вновь приступает к работе в спецслужбах России. На этот раз российским спецслужбам предстоит сорвать планы владельца крупного оружейного концерна Хвостова, который решил ради прибыли спровоцировать в Европе новый виток гонки вооружений. Хвостов играет по-крупному — организует убийство несговорчивого российского спецпредставителя при НАТО и взрыв в штаб-квартире организации в Брюсселе. Синдбаду, Щепкину и Неверову предётся заняться этим делом. Также их команде придётся участвовать в обезвреживании международной преступной группы. Однажды генералу ФСБ Раздрогину назначил встречу осведомитель из Амстердама, который что-то знал о тайном грузе, плывущим в Петербург. Однако до встречи шпион не дожил. Теперь единственными зацепками для спецслужб служит смс-сообщение от него в одно слово: «Эскалибур» и знак английского фунта.--Качество видео: SATRip
Формат видео: AVI
Видео кодек: MPEG4, XviD
Аудио кодек: MP3
Видео: MPEG4, XviD, 704x400 (16:9), 25.000 fps, 1 471 Kbps (0.209 bit/pixel)
Аудио: MP3, 48.0 KHz, 2 ch, 192 Kbps, CBR, 16 bits [Русский] -- --

Тех. данные (MI)

Расположение: E:\СЕРИАЛЫ\Синбад\Wremya.sindbada.2012.SATRip.KinozalSAT\Wremya.sindbada.01.2012.SATRip.KinozalSAT.avi
Имя файла: Wremya.sindbada.01.2012.SATRip.KinozalSAT.avi
Формат файла: .avi (AVI)
Размер файла: 550.01 MB
Длительность: 46mn 1s
Навигация по главам: Нет
Bitrate (все потоки): 1 671 Kbps
...при помощи: VirtualDubMod 1.5.4.1 (build 2178/release)
...с использованием: VirtualDubMod build 2178/release
Название: Wremya.sindbada.01.2012.SATRip.KinozalSAT
Тип потока: Видео
Длительность: 00:46:01
Кодек: MPEG-4 Visual
Кодек/Профиль: Advanced Simple@L5
Кодек/ID: XVID
Размеры изображения: 704 x 400 (16:9)
Частота кадров: 25.000 fps
Размер потока: 484 MiB (88%)
Битрейт: 1 471 Kbps
Цветовое пространство: YUV
Тип развёртки: Progressive
Bits/(Pixel*Frame): 0.209
Глубина пикселя: 8 bits
Библиотека кодирования: XviD 64
Тип потока: Звук #1
Длительность: 00:46:01.440
Кодек: MPEG Audio
Кодек/ID: 55
Частота дискретизации: 48.0 KHz
Каналы: 2 channels
Битрейт: 192 Kbps
Тип битрейта: Constant
Размер потока: 63.2 MiB (11%)

Кадры из фильма



«СЕЗОН 1» «СЕЗОН 2» СЕЗОН 3» «СЕЗОН 4»

_________________
[Торрент-статистика]
[Профиль]  [ЛС] 
Показать сообщения:    
Ответить на тему

Текущее время: Сегодня 07:15

Часовой пояс: GMT + 4



Вы не можете начинать темы
Вы не можете отвечать на сообщения
Вы не можете редактировать свои сообщения
Вы не можете удалять свои сообщения
Вы не можете голосовать в опросах
Вы не можете прикреплять файлы к сообщениям
Вы не можете скачивать файлы