Странствия Синдбада / Сезон: 3 / Серии: 1-16 из 16 (Ким Дружинин) [2012 г., Боевик, Приключения, Криминал, DVBRip]

Ответить на тему
 
Автор
Сообщение

awk05 ®

Пол:

Стаж: 8 лет 4 месяца

Сообщений: 1334

Репутация: 278 [+] [-]

Откуда: Западная Украина Ривне

Пост 21-Мар-2013 20:57

[Цитировать] 

--Странствия Синдбада--
Год выпуска: 2012
Производство: ООО «Прогресс-Студия», ООО «Форвард-Фильм»
Жанр: Боевик, Приключения, Криминал
Сезон/Серия: Сезон:3 /Серия 1-16 из 16
Продолжительность: 16 x 00:46:00
Субтитры: отсутствуют--Режиссёр: Ким Дружинин--В ролях: Андрей Смелов, Яков Кучеревский, Игорь Иванов, Азиз Бейшеналиев, Евгения Игумнова, Олег Гераськин, Максим Брызгалин, Антон Багров, Александр Блок, Владимир Брик, Сергей Лысов--Описание: Действие новой части приключений фильма происходит через пару лет после истории, описанной в "Возвращении Синдбада". По запросу Интерпола, инициированному китайскими правоохранительными органами, в Петербурге задержан находящийся там на нелегальном положении Сиддик-ходжа, лидер националистов и один из руководителей террористической организации.Одновременно в Турции происходит покушение на Синдбада, который тихо живет в приморской деревушке, зарабатывая на жизнь ловлей рыбы. К нему в больницу приходит Смит, который сообщает, что покушение - это дело адвоката Раббани. К тому же, Раббани в Петербурге координирует действия по освобождению мусульманского муфтия. Смит предлагает оправить Синдбада в Питер для устранения Раббани.--Качество видео: DVBRip
Формат видео: AVI
Видео кодек: MPEG4, XviD
Аудио кодек: AC-3
Видео: MPEG4, XviD, 720x400 (16:9), 25.000 fps, 1 902 Kbps (0.264 bit/pixel)
Аудио: AC-3, 48.0 KHz, 2 ch, 192 Kbps, CBR, 16 bits [Русский] -- --

Тех. данные (MI)

Расположение: E:\СЕРИАЛЫ\Синбад\Strastvie_Sindbada_(2012)_NTV_DVBRip\01_Sindbad_(2012)_DVBRip.avi
Имя файла: 01_Sindbad_(2012)_DVBRip.avi
Формат файла: .avi (AVI)
Размер файла: 702.32 MB
Длительность: 46mn 40s
Навигация по главам: Нет
Bitrate (все потоки): 2 104 Kbps
...с использованием: VirtualDub build 34753/release
Название: 01_Sindbad_(2012)_DVBRip
Тип потока: Видео
Длительность: 00:46:40
Кодек: MPEG-4 Visual
Кодек/Профиль: Advanced Simple@L5
Кодек/ID: XVID
Размеры изображения: 720 x 400 (16:9)
Частота кадров: 25.000 fps
Размер потока: 635 MiB (90%)
Битрейт: 1 902 Kbps
Цветовое пространство: YUV
Тип развёртки: Interlaced
Bits/(Pixel*Frame): 0.264
Глубина пикселя: 8 bits
Библиотека кодирования: XviD 64
Тип потока: Звук #1
Длительность: 00:46:40.416
Кодек: AC-3
Кодек/ID: 2000
Частота дискретизации: 48.0 KHz
Каналы: 2 channels
Каналы/позиция: Front: L R
Битрейт: 192 Kbps
Тип битрейта: Constant
Размер потока: 64.1 MiB (9%)

Кадры из фильма



«СЕЗОН 1» «СЕЗОН 2» СЕЗОН 3» «СЕЗОН 4»

_________________
[Торрент-статистика]
[Профиль]  [ЛС] 
Показать сообщения:    
Ответить на тему

Текущее время: Сегодня 07:32

Часовой пояс: GMT + 4



Вы не можете начинать темы
Вы не можете отвечать на сообщения
Вы не можете редактировать свои сообщения
Вы не можете удалять свои сообщения
Вы не можете голосовать в опросах
Вы не можете прикреплять файлы к сообщениям
Вы не можете скачивать файлы