Возвращение Синдбада / Сезон: 2 / Серии: 1-12 из 12 (Егор Абросимов) [2009 г., Остросюжетный детектив, DVDRip]

Ответить на тему
 
Автор
Сообщение

awk05 ®

Пол:

Стаж: 8 лет 4 месяца

Сообщений: 1334

Репутация: 278 [+] [-]

Откуда: Западная Украина Ривне

Пост 21-Мар-2013 20:10

[Цитировать] 

--Возвращение Синдбада -- Страна: Россия, "Студия "Панорама"
Год выпуска: 2009
Жанр: Боевик, Приключения, Криминал
Сезон/Серия: Сезон:2 /Серия 1-12 из 12
Продолжительность: 12 х ~ 00:49:00
Субтитры: отсутствуют--Режиссер: Егор Абросимов--В ролях: Андрей Смелов, Анна Носатова, Игорь Иванов, Яков Кучеревский, Дмитрий Быковский, Илья Любимов, Сергей Векслер, Александр Устюгов, Ольга Медынич, Елена Лядова, Владислав Резник, Саид Дашук-Нигматулин, Наталья Индейкина, Алексей Макрецкий--Описание: Руководство российских спецслужб давно тревожит судьба одной из наиболее глубоко законспирированных сотрудниц службы внешней разведки Елены Озерской, несколько лет назад внедренной на Ближний Восток. Елена, которой и раньше приходилось вести рискованную игру в годы своего замужества за одним из наиболее опасных на планете торговцев оружием Аль-Джабером, снабжавшим техникой террористические группировки по всему миру, после смерти супруга сама становится у руля созданной им структуры. Куратор Озерской Борис Щепкин уже давно отошел от дел и прервал с ней всяческий контакт, но именно к нему обращается бывшее начальство для того, чтобы попытаться выяснить правду о нынешнем положении его бывшей подопечной. Щепкин нехотя соглашается. Для своей опасной миссии он подбирает специальную группу, куда включены также и его друг из милиции Неверов, и бывший противник Эльдар, а также несколько новых сотрудников ФСБ. Теперь группе Щепкина предстоит опасная миссия в Израиле, где к ним, в силу ряда обстоятельств, присоединяются специалисты израильской службы безопасности "Шабак". Вместе им предстоит столкнуться с серьезным террористическим заговором, целью которого становится подготовка крупномасштабных акций устрашения по всей территории Европы. Пытаясь остановить расследование и уничтожить улики, террористическая организация направляет по следам группы Щепкина знаменитого наемного убийцу, ранее работавшего на сепаратистскую организацию ЭТА в Стране басков, Фалькона. Кроме того, в совместную операцию российской и израильской контрразведок вмешиваются спецслужбы США. Их агентом становится Малик по прозвищу "Синдбад", который в прошлом был одним из самых преданных помощников Щепкина. В свое время, Синдбаду удалось предотвратить убийство Щепкина, но сам он попал в руки американских секретных агентов. Теперь главной целью Синдбада становится месть за недавно погибших близких: единственные родные ему люди, семейство старого Салима, было зверски убито террористами во дворе собственного дома.--Качество: DVDRip
Формат: AVI
Видео кодек: MPEG4, XviD
Аудио кодек: MP3
Видео: MPEG4, XviD, 720x416 (16:9), 25.000 fps, 963 Kbps (0.129 bit/pixel)
Аудио: MP3, 48.0 KHz, 2 ch, 128 Kbps, CBR, 16 bits [Русский] -- --

Тех. данные (MI)

Расположение: E:\СЕРИАЛЫ\Синбад\Возвращение Синдбада\01.avi
Имя файла: 01.avi
Формат файла: .avi (AVI)
Размер файла: 371.65 MB
Длительность: 45mn 32s
Навигация по главам: Нет
Bitrate (все потоки): 1 141 Kbps
...с использованием: VirtualDub build 30009/release
Название: 01
Тип потока: Видео
Длительность: 00:45:32
Кодек: MPEG-4 Visual
Кодек/Профиль: Simple@L2
Кодек/ID: XVID
Размеры изображения: 720 x 400 (16:9)
Частота кадров: 25.000 fps
Размер потока: 327 MiB (88%)
Битрейт: 1 003 Kbps
Цветовое пространство: YUV
Тип развёртки: Progressive
Bits/(Pixel*Frame): 0.139
Глубина пикселя: 8 bits
Библиотека кодирования: XviD 1.1.2 (UTC 2006-11-01)
Тип потока: Звук #1
Длительность: 00:45:32.960
Кодек: MPEG Audio
Кодек/ID: 55
Частота дискретизации: 48.0 KHz
Каналы: 2 channels
Битрейт: 128 Kbps
Тип битрейта: Constant
Размер потока: 41.7 MiB (11%)

Кадры из фильма

«СЕЗОН 1» «СЕЗОН 2» СЕЗОН 3» «СЕЗОН 4»

_________________
[Торрент-статистика]
[Профиль]  [ЛС] 
Показать сообщения:    
Ответить на тему

Текущее время: Сегодня 06:38

Часовой пояс: GMT + 4



Вы не можете начинать темы
Вы не можете отвечать на сообщения
Вы не можете редактировать свои сообщения
Вы не можете удалять свои сообщения
Вы не можете голосовать в опросах
Вы не можете прикреплять файлы к сообщениям
Вы не можете скачивать файлы