All inclusive, или Всё включено (Эдуард Радзюкевич) [2011 г., комедия, BDRip]

Ответить на тему
 
Автор
Сообщение

AZLK ®

Пол:

Стаж: 5 лет 1 месяц

Сообщений: 114

Репутация: 11 [+] [-]

Откуда: Москва, Солнцево

Пост 16-Дек-2011 02:59

[Цитировать] 

All inclusive, или Всё включено
Год выпуска: 2011
Страна: Россия
Жанр: комедия
Продолжительность: 01:36:36
Режиссер: Эдуард Радзюкевич
В ролях: Михаил Беспалов, Марина Александрова, Федор Добронравов, Анна Ардова, Роман Мадянов, Нонна Гришаева, Эдуард Радзюкевич, Ольга Медынич, Григорий Сиятвинда, Денис Ясик
Описание: Жизнь Андрея - владельца дорогой и востребованной ветеринарной клиники для домашних животных с Рублевки - определенно удалась. Мало того, он не обделен вниманием и прекрасных хозяек милых зверюшек. Но страстная ночь с женой олигарха Эвелиной меняет все: ревнивый муж Эдик очень доходчиво объясняет, что изменит сладкую жизнь успешного бизнесмена.
Единственный выход - это побег из страны. И Андрей уезжает в Турцию по программе «Все включено», не подозревая, что в нее включено намного больше, чем кажется на первый взгляд. За ним по пятам следует австрийский киллер Рудольф, а солнечные пляжи таят самое главное испытание в жизни..
Тип релиза: BDRip 720р
Контейнер: MKV
Видео кодек: MPEG4 Video (H264)
Аудио кодек: DTS
Видео: 1280x544 at 23.976 fps, x264@L4.1, crf, ~3453 kbps avg
Аудио: 48 kHz/16-bit, DTS, 3/2 (L,C,R,l,r) + LFE ch, ~1536.00 kbps avg

Mediainfo

Полное имя : D:\Готово\All.inclusive.ili.Vse.vklucheno.2011.Rus.BDRip.720p.mkv
Формат : Matroska
Версия формата : Version 2
Размер файла : 3,42 Гбайт
Продолжительность : 1 ч. 36 м.
Общий поток : 5063 Кбит/сек
Название фильма : All inclusive, ili vse vklycheno.2011- Release for HDCLUB
Дата кодирования : UTC 2011-09-04 12:24:19
Программа кодирования : mkvmerge v4.9.1 ('Ich will') сборка от Jul 11 2011 23:53:15
Библиотека кодирования : libebml v1.2.1 + libmatroska v1.1.1
Видео
Идентификатор : 1
Формат : AVC
Формат/Информация : Advanced Video Codec
Профиль формата : High@L4.1
Параметр CABAC формата : Да
Параметр ReFrames формата : 8 кадров
Идентификатор кодека : V_MPEG4/ISO/AVC
Продолжительность : 1 ч. 36 м.
Битрейт : 3453 Кбит/сек
Ширина : 1280 пикселей
Высота : 544 пикселя
Соотношение сторон : 2,35:1
Соотношение сторон в оригинале : 2,35:1
Частота кадров : 23,976 кадра/сек
Цветовое пространство : YUV
Субдискретизация насыщенности : 4:2:0
Битовая глубина : 8 бит
Тип развёртки : Прогрессивная
Бит/(Пиксели*Кадры) : 0.207
Размер потока : 2,33 Гбайт (68%)
Заголовок : Release for HDCLUB
Библиотека кодирования : x264 core 116 r2074 2641b9e
Язык : Russian
Default : Да
Forced : Нет
Основные цвета : BT.709-5, BT.1361, IEC 61966-2-4, SMPTE RP177
Характеристики трансфера : BT.709-5, BT.1361
Коэффициенты матрицы : BT.709-5, BT.1361, IEC 61966-2-4 709, SMPTE RP177
Аудио
Идентификатор : 2
Формат : DTS
Формат/Информация : Digital Theater Systems
Идентификатор кодека : A_DTS
Продолжительность : 1 ч. 36 м.
Вид битрейта : Постоянный
Битрейт : 1510 Кбит/сек
Каналы : 6 каналов
Расположение каналов : Front: L C R, Side: L R, LFE
Частота : 48,0 КГц
Битовая глубина : 16 бит
Метод сжатия : С потерями
Размер потока : 1,02 Гбайт (30%)
Заголовок : (DTS 5.1,1509 kbps,Original)
Язык : Russian
Default : Да
Forced : Нет

Скриншоты

[Торрент-статистика]
[Профиль]  [ЛС] 
Показать сообщения:    
Ответить на тему

Текущее время: Сегодня 14:42

Часовой пояс: GMT + 4



Вы не можете начинать темы
Вы не можете отвечать на сообщения
Вы не можете редактировать свои сообщения
Вы не можете удалять свои сообщения
Вы не можете голосовать в опросах
Вы не можете прикреплять файлы к сообщениям
Вы не можете скачивать файлы