Вождь разнокожих (Егор Анашкин) [2012, комедия, семейный, BDRip 1080p] Лицензия

Ответить на тему
 
Автор
Сообщение

diim ®

Пол:

Стаж: 1 год 10 месяцев

Сообщений: 1033

Репутация: 112 [+] [-]

Пост 18-Окт-2012 01:51

[Цитировать] 

Вождь разнокожихГод выпуска: 2012
Страна: Россия
Жанр: комедия, семейный
Продолжительность: 01:29:56
Перевод: Оригинальный
Режиссер: Егор Анашкин
Сценарий: Игорь Сосна, Дмитрий Зверьков
Продюсер: Илья Неретин, Тимофей Сергейцев, Дмитрий Куликов
Композитор: Дмитрий Носков
В ролях: Дмитрий Дюжев, Мария Миронова, Григорий Сиятвинда, Игорь Ванюшкин, Семен Стругачев, Александр Числов, Виталий Гребенников, Владимир Епископосян, Виталий Кулаков, Никита Иванов, Эдуард Арушанян-Сборы в России: $106 291
Мировая премьера: 30 августа 2012
Релиз на DVD: 11 октября 2012, «CD Land»
Релиз на Blu-ray: 18 октября 2012, «CD Land»-Описание: История малолетнего злого гения как нельзя точно ложится на современные, в частности, российские реалии. Это рассказ не только о разрушительной силе детских шалостей, но также и о природе их возникновения. Будущий фильм - не просто развлекательная картина. На экране - проблемы отношений нынешних детей и взрослых.
Это история большого современного мегаполиса, вечно занятых родителей, у которых дети предоставлены, по большей части, общению с современными техническими средствами, но практически лишены эмоционального контакта как с родителями, так и со сверстниками. Наша цель сделать увлекательный и весёлый фильм, понятный и близкий зрителям всех возрастов, сочетающий лучшие традиции детской и семейной комедии.- 4.2/10 (13 users) 4.269 (237)-

NFO

Format : Matroska
Format version : Version 2
File size : 7.29 GiB
Duration : 1h 29mn
Overall bit rate : 11.6 Mbps
Movie name : _CMEGroup_BLUEBIRD
Encoded date : UTC 2012-10-16 08:12:38
Writing application : mkvmerge v5.8.0 ('No Sleep / Pillow') built on Sep 2 2012 15:37:04
Writing library : libebml v1.2.3 + libmatroska v1.3.0
Video
ID : 1
Format : AVC
Format/Info : Advanced Video Codec
Format profile : High@L4.1
Format settings, CABAC : Yes
Format settings, ReFrames : 4 frames
Codec ID : V_MPEG4/ISO/AVC
Duration : 1h 29mn
Bit rate : 10.1 Mbps
Width : 1 920 pixels
Height : 1 036 pixels
Display aspect ratio : 1.85:1
Frame rate : 25.000 fps
Color space : YUV
Chroma subsampling : 4:2:0
Bit depth : 8 bits
Scan type : Progressive
Bits/(Pixel*Frame) : 0.203
Stream size : 6.20 GiB (85%)
Writing library : x264 core 128 r2216 198a7ea
Encoding settings : cabac=1 / ref=4 / deblock=1:-3:-3 / analyse=0x3:0x113 / me=umh / subme=11 / psy=1 / psy_rd=1.00:0.00 / mixed_ref=1 / me_range=24 / chroma_me=1 / trellis=2 / 8x8dct=1 / cqm=0 / deadzone=21,11 / fast_pskip=1 / chroma_qp_offset=-2 / threads=6 / lookahead_threads=1 / sliced_threads=0 / nr=0 / decimate=1 / interlaced=0 / bluray_compat=0 / constrained_intra=0 / bframes=6 / b_pyramid=2 / b_adapt=2 / b_bias=0 / direct=2 / weightb=0 / open_gop=0 / weightp=2 / keyint=250 / keyint_min=25 / scenecut=40 / intra_refresh=0 / rc_lookahead=40 / rc=2pass / mbtree=1 / bitrate=10100 / ratetol=1.0 / qcomp=0.60 / qpmin=0 / qpmax=69 / qpstep=4 / cplxblur=20.0 / qblur=0.5 / ip_ratio=1.40 / aq=1:1.00
Language : English
Default : Yes
Forced : No
Audio
ID : 2
Format : DTS
Format/Info : Digital Theater Systems
Codec ID : A_DTS
Duration : 1h 29mn
Bit rate mode : Constant
Bit rate : 1 510 Kbps
Channel(s) : 6 channels
Channel positions : Front: L C R, Side: L R, LFE
Sampling rate : 48.0 KHz
Bit depth : 24 bits
Compression mode : Lossy
Stream size : 971 MiB (13%)
Language : Russian
Default : Yes
Forced : No
Menu
00:00:00.000 : :Chapter 01
00:08:08.359 : :Chapter 02
00:14:57.240 : :Chapter 03
00:23:25.600 : :Chapter 04
00:29:47.120 : :Chapter 05
00:37:37.680 : :Chapter 06
00:44:01.760 : :Chapter 07
00:50:45.040 : :Chapter 08
00:56:43.040 : :Chapter 09
01:02:18.520 : :Chapter 10
01:07:03.920 : :Chapter 11
01:15:07.439 : :Chapter 12
-*Сохранены оригинальные чаптеры как на Blu-Ray-Качество: BDRip 1080p
Формат: MKV
Видео: MPEG-4 AVC, 11.1 Mбит/с, 1920x1030
Аудио: DTS, 6 ch, 1510 Кбит/сек-

Скриншоты

[Торрент-статистика]
[Профиль]  [ЛС] 
Показать сообщения:    
Ответить на тему

Текущее время: Сегодня 15:32

Часовой пояс: GMT + 4



Вы не можете начинать темы
Вы не можете отвечать на сообщения
Вы не можете редактировать свои сообщения
Вы не можете удалять свои сообщения
Вы не можете голосовать в опросах
Вы не можете прикреплять файлы к сообщениям
Вы не можете скачивать файлы