Моя безумная семья (Ренат Давлетьяров) [2011 г. Россия. Комедия. BDRip 720p]

Ответить на тему
 
Автор
Сообщение

ArtZak ®

Пол:

Стаж: 5 лет 1 месяц

Сообщений: 3008

Репутация: 1363 [+] [-]

Откуда: Россия

Пост 07-Мар-2012 01:59

[Цитировать] 

Моя безумная семья
Страна: Россия
Жанр: Комедия
Год выпуска: 2011
Продолжительность: 01:23:53
Оригинальная аудиодорожка: Русская
Режиссёр: Ренат Давлетьяров
В ролях: Иван Стебунов, Аглая Шиловская, Леонид Ярмольник, Мария Шукшина, Андрей Ургант, Лариса Удовиченко, Андрей Панин, Анна Ардова, Ольга Орлова, Вячеслав Манучаров-Описание: Главный герой находит оригинальный выход: нанимает актеров из рекламного ролика, чтобы те сыграли его семью. Однако идеальный план выходит из-под контроля, ситуация накаляется и наш герой вынужден идти на крайние меры, чтобы не потерять любимую девушку и свою семью.
Тип релиза: BDRip
Контейнер: MKV
Видео: H264 / 6178 kbps / 1280x582 / 23,976 fps / L 4.1
Аудио : Русский / Dolby Digital / 5.1 / 640 kbps / 48 kHz
Чаптеры: есть

Скриншоты


MediaInfo

Код:
Полное имя : Moja.Bezumnaja.Semja.2011.Blu-ray.720p.x264-NiP.mkv
Формат : Matroska
Версия формата : Version 2
Размер файла : 4,00 Гбайт
Продолжительность : 1 ч. 23 м.
Общий поток : 6832 Кбит/сек
Название фильма : HANSMER
Дата кодирования : UTC 2012-03-05 08:41:51
Программа кодирования : mkvmerge v5.3.0 ('I could have danced') built on Feb 9 2012 10:38:07
Библиотека кодирования : libebml v1.2.3 + libmatroska v1.3.0
Attachment : Yes / Yes / Yes / Yes / Yes / Yes / Yes / Yes
Видео
Идентификатор : 1
Формат : AVC
Формат/Информация : Advanced Video Codec
Профиль формата : High@L4.1
Параметр CABAC формата : Да
Параметр ReFrames формата : 11 кадров
Идентификатор кодека : V_MPEG4/ISO/AVC
Продолжительность : 1 ч. 23 м.
Битрейт : 6183 Кбит/сек
Ширина : 1280 пикселей
Высота : 582 пикселя
Соотношение сторон : 2,2:1
Частота кадров : 23,976 кадра/сек
Цветовое пространство : YUV
Субдискретизация насыщенности : 4:2:0
Битовая глубина : 8 бит
Тип развёртки : Прогрессивная
Бит/(Пиксели*Кадры) : 0.346
Размер потока : 3,55 Гбайт (89%)
Заголовок : Moja.Bezumnaja.Semja.2011.Blu-ray.720p.x264-NiP
Библиотека кодирования : x264 core 120 r2164 da19765
Настройки программы : cabac=1 / ref=11 / deblock=1:-3:-3 / analyse=0x3:0x113 / me=tesa / subme=11 / psy=1 / psy_rd=1.00:0.00 / mixed_ref=1 / me_range=24 / chroma_me=1 / trellis=2 / 8x8dct=1 / cqm=0 / deadzone=21,11 / fast_pskip=0 / chroma_qp_offset=-2 / threads=12 / sliced_threads=0 / nr=0 / decimate=0 / interlaced=0 / bluray_compat=0 / constrained_intra=0 / bframes=7 / b_pyramid=2 / b_adapt=2 / b_bias=0 / direct=3 / weightb=1 / open_gop=0 / weightp=2 / keyint=240 / keyint_min=24 / scenecut=40 / intra_refresh=0 / rc_lookahead=60 / rc=2pass / mbtree=0 / bitrate=6183 / ratetol=1.0 / qcomp=0.80 / qpmin=0 / qpmax=69 / qpstep=4 / cplxblur=20.0 / qblur=0.5 / vbv_maxrate=50000 / vbv_bufsize=62500 / nal_hrd=none / ip_ratio=1.40 / pb_ratio=1.30 / aq=1:0.90
Язык : English
Коэффициенты матрицы : BT.709-5, BT.1361, IEC 61966-2-4 709, SMPTE RP177
Аудио
Идентификатор : 2
Формат : AC-3
Формат/Информация : Audio Coding 3
Расширение режима : CM (complete main)
Идентификатор кодека : A_AC3
Продолжительность : 1 ч. 23 м.
Вид битрейта : Постоянный
Битрейт : 640 Кбит/сек
Каналы : 6 каналов
Расположение каналов : Front: L C R, Side: L R, LFE
Частота : 48,0 КГц
Битовая глубина : 16 бит
Метод сжатия : С потерями
Размер потока : 384 Мбайт (9%)
Язык : Russian
Меню
00:00:00.000 : ru:Глава 1
00:05:18.318 : ru:Глава 2
00:09:01.124 : ru:Глава 3
00:13:13.960 : ru:Глава 4
00:17:09.820 : ru:Глава 5
00:21:29.705 : ru:Глава 6
00:27:05.541 : ru:Глава 7
00:30:59.858 : ru:Глава 8
00:38:27.472 : ru:Глава 9
00:47:05.031 : ru:Глава 10
00:53:16.026 : ru:Глава 11
01:00:02.349 : ru:Глава 12
01:03:57.542 : ru:Глава 13
01:07:22.956 : ru:Глава 14
01:12:47.947 : ru:Глава 15
01:16:51.607 : ru:Глава 16
[Торрент-статистика]
[Профиль]  [ЛС] 
Показать сообщения:    
Ответить на тему

Текущее время: Сегодня 00:16

Часовой пояс: GMT + 4



Вы не можете начинать темы
Вы не можете отвечать на сообщения
Вы не можете редактировать свои сообщения
Вы не можете удалять свои сообщения
Вы не можете голосовать в опросах
Вы не можете прикреплять файлы к сообщениям
Вы не можете скачивать файлы