Камень (Вячеслав Каминский) [2011 г. Россия. Триллер. BDRip 720p]

Ответить на тему
 
Автор
Сообщение

diim ®

Пол:

Стаж: 1 год 10 месяцев

Сообщений: 1033

Репутация: 112 [+] [-]

Пост 20-Фев-2012 06:29

[Цитировать] 

Камень-«Когда остаешься один, твое сердце превращается в...»-Страна: Россия
Жанр: триллер
Год выпуска: 2011
Продолжительность: 01:24:49
Оригинальная аудиодорожка: Русская
Режиссёр: Вячеслав Каминский
В ролях: Сергей Светлаков, Николай Козак, Олеся Судзиловская, Александр Колесников, Валда Бичкуте, Елена Коренева, Сергей Насибов, Вячеслав Хархота, Семен Оконочников, Роман Володькин-Описание:Когда у известного бизнесмена похищают 7-летнего сына, он еще не представляет, какое испытание его ждет! Оказывается, таинственному похитителю не нужен никакой выкуп и у него единственное требование к отцу. В течение следующих суток тот должен решить, кто умрет из них двоих: его ребенок или он сам…-Исходник: Kamen 2011 Blu-ray MPEG2 DD 5.1
Тип релиза: BDRip (NiP)
Контейнер: MKV
Видео: H264 / 6099 kbps / 1280x544 / 25 fps / L 4.1
Аудио: Русский / Dolby Digital / 5.1 / 640 kbps / 48 kHz
Чаптеры: есть

MediaInfo

Полное имя : Kamen.2011.Blu-ray.720p.x264-NiP.mkv
Формат : Matroska
Версия формата : Version 2
Размер файла : 4,00 Гбайт
Продолжительность : 1 ч. 24 м.
Общий поток : 6758 Кбит/сек
Название фильма : HANSMER
Дата кодирования : UTC 2012-02-18 10:24:22
Программа кодирования : mkvmerge v5.3.0 ('I could have danced') built on Feb 9 2012 10:38:07
Библиотека кодирования : libebml v1.2.3 + libmatroska v1.3.0
Attachment : Yes / Yes / Yes / Yes / Yes / Yes / Yes / Yes / Yes / Yes / Yes / Yes
Видео
Идентификатор : 1
Формат : AVC
Формат/Информация : Advanced Video Codec
Профиль формата : High@L4.1
Параметр CABAC формата : Да
Параметр ReFrames формата : 12 кадров
Идентификатор кодека : V_MPEG4/ISO/AVC
Продолжительность : 1 ч. 24 м.
Битрейт : 6107 Кбит/сек
Ширина : 1280 пикселей
Высота : 544 пикселя
Соотношение сторон : 2,35:1
Частота кадров : 25,000 кадров/сек
Цветовое пространство : YUV
Субдискретизация насыщенности : 4:2:0
Битовая глубина : 8 бит
Тип развёртки : Прогрессивная
Бит/(Пиксели*Кадры) : 0.351
Размер потока : 3,55 Гбайт (89%)
Заголовок : Kamen.2011.Blu-ray.720p.x264-NiP
Библиотека кодирования : x264 core 120 r2164 da19765
Настройки программы : cabac=1 / ref=12 / deblock=1:-3:-3 / analyse=0x3:0x113 / me=umh / subme=11 / psy=1 / psy_rd=1.00:0.00 / mixed_ref=1 / me_range=48 / chroma_me=1 / trellis=2 / 8x8dct=1 / cqm=0 / deadzone=21,11 / fast_pskip=0 / chroma_qp_offset=-2 / threads=12 / sliced_threads=0 / nr=0 / decimate=0 / interlaced=0 / bluray_compat=0 / constrained_intra=0 / bframes=7 / b_pyramid=2 / b_adapt=2 / b_bias=0 / direct=3 / weightb=1 / open_gop=0 / weightp=2 / keyint=250 / keyint_min=25 / scenecut=40 / intra_refresh=0 / rc_lookahead=60 / rc=2pass / mbtree=0 / bitrate=6107 / ratetol=1.0 / qcomp=0.90 / qpmin=0 / qpmax=69 / qpstep=4 / cplxblur=20.0 / qblur=0.5 / vbv_maxrate=50000 / vbv_bufsize=62500 / nal_hrd=none / ip_ratio=1.40 / pb_ratio=1.30 / aq=2:1.00
Язык : Russian
Коэффициенты матрицы : BT.709-5, BT.1361, IEC 61966-2-4 709, SMPTE RP177
Аудио
Идентификатор : 2
Формат : AC-3
Формат/Информация : Audio Coding 3
Расширение режима : CM (complete main)
Идентификатор кодека : A_AC3
Продолжительность : 1 ч. 24 м.
Вид битрейта : Постоянный
Битрейт : 640 Кбит/сек
Каналы : 6 каналов
Расположение каналов : Front: L C R, Side: L R, LFE
Частота : 48,0 КГц
Битовая глубина : 16 бит
Метод сжатия : С потерями
Размер потока : 388 Мбайт (9%)
Язык : Russian
Меню
00:00:00.000 : ru:Глава 1
00:00:39.000 : ru:Глава 2
00:11:18.880 : ru:Глава 3
00:22:26.840 : ru:Глава 4
00:32:14.960 : ru:Глава 5
00:42:02.600 : ru:Глава 6
00:52:13.080 : ru:Глава 7
01:02:49.560 : ru:Глава 8
01:12:03.440 : ru:Глава 9

Скриншоты

[Торрент-статистика]
[Профиль]  [ЛС] 
Показать сообщения:    
Ответить на тему

Текущее время: Сегодня 15:39

Часовой пояс: GMT + 4



Вы не можете начинать темы
Вы не можете отвечать на сообщения
Вы не можете редактировать свои сообщения
Вы не можете удалять свои сообщения
Вы не можете голосовать в опросах
Вы не можете прикреплять файлы к сообщениям
Вы не можете скачивать файлы