Игра в правду (Виктор Шамиров) [2013 г., комедия, WEB-DL 1080p]

Ответить на тему
 
Автор
Сообщение

TiZAr ®

Пол:

Стаж: 3 года 3 месяца

Сообщений: 836

Репутация: 1157 [+] [-]

Откуда: Россия

Пост 10-Апр-2014 23:59

[Цитировать] 

Игра в правду
«Комедия для взрослых по-французски»
- Год выпуска: 2013
Страна: Россия
Жанр: комедия
Продолжительность: 01:34:51
Навигация по главам: есть
Режиссер: Виктор Шамиров
Производство: Базелевс Продакшн- -В ролях:
Ирина Апексимова, Константин Юшкевич, Дмитрий Марьянов, Гоша Куценко и др.
Описание:
Трое бывших однокурсников собираются на квартире поболтать под водочку и вспомнить юность. Разухабистый бизнесмен Марк порывается вызвонить девочек, но не находит поддержки у друзей: автодилер Геннадий скорее по привычке хранит верность жене, а хозяин квартиры — физик и неудачник Анатолий — подготовил для всех сюрприз. Он приглашает в гости звезду их курса Майю, в которую все трое были влюблены 20 лет назад. Разговор на четверых не клеится, пока не начинается предельно откровенная игра в правду. Друзья узнают друг о друге то, чего, возможно, предпочли бы не знать. Пройдут ли их отношения проверку правдой?
Тип релиза: WEB-DL 1080p
Контейнер: MKV
Видео: AVC, 1912x796 (2.40:1), 24.000 fps, 3 711 Kbps (0.102 bit/pixel)
Аудио: AC-3, 48.0 KHz, 6 ch, 384 Kbps, CBR (Russian)

MI

Код:
General
Unique ID                                : 252681929252707229301113296952489756199 (0xBE18C4F717AF2B1CB4AF16DA97FD4627)
Complete name                            : Igra.v.pravdu.2013.O.WEBDL.1080p.mkv
Format                                   : Matroska
Format version                           : Version 2
File size                                : 2.77 GiB
Duration                                 : 1h 34mn
Overall bit rate                         : 4 178 Kbps
Encoded date                             : UTC 2014-03-06 15:45:19
Writing application                      : mkvmerge v5.2.0 ('I can't explain') built on Dec 18 2011 18:12:03
Writing library                          : libebml v1.2.3 + libmatroska v1.3.0
Video
ID                                       : 1
Format                                   : AVC
Format/Info                              : Advanced Video Codec
Format profile                           : High@L4.0
Format settings, CABAC                   : Yes
Format settings, ReFrames                : 5 frames
Muxing mode                              : Header stripping
Codec ID                                 : V_MPEG4/ISO/AVC
Duration                                 : 1h 34mn
Bit rate                                 : 3 711 Kbps
Width                                    : 1 912 pixels
Height                                   : 796 pixels
Display aspect ratio                     : 2.40:1
Frame rate mode                          : Constant
Frame rate                               : 24.000 fps
Color space                              : YUV
Chroma subsampling                       : 4:2:0
Bit depth                                : 8 bits
Scan type                                : Progressive
Bits/(Pixel*Frame)                       : 0.102
Stream size                              : 2.46 GiB (89%)
Language                                 : English
Default                                  : Yes
Forced                                   : No
Color primaries                          : BT.709
Transfer characteristics                 : BT.709
Matrix coefficients                      : BT.709
Audio
ID                                       : 2
Format                                   : AC-3
Format/Info                              : Audio Coding 3
Mode extension                           : CM (complete main)
Format settings, Endianness              : Big
Muxing mode                              : Header stripping
Codec ID                                 : A_AC3
Duration                                 : 1h 34mn
Bit rate mode                            : Constant
Bit rate                                 : 384 Kbps
Channel count                            : 6 channels
Channel positions                        : Front: L C R, Side: L R, LFE
Sampling rate                            : 48.0 KHz
Bit depth                                : 16 bits
Compression mode                         : Lossy
Stream size                              : 261 MiB (9%)
Language                                 : Russian
Default                                  : Yes
Forced                                   : Yes
Menu
00:00:00.000                             : en:глава 1
00:10:08.000                             : en:глава 2
00:20:16.000                             : en:глава 3
00:29:21.000                             : en:глава 4
00:38:02.000                             : en:глава 5
00:49:08.000                             : en:глава 6
01:00:17.000                             : en:глава 7
01:10:09.000                             : en:глава 8
01:18:31.000                             : en:глава 9
01:26:31.000                             : en:глава 10
01:32:04.000                             : en:глава 11

Скриншоты




_________________
Не стоит обращать внимания на отсутствие сидов на моих раздачах. Все мои релизы мультитрекерные - нет сидов, включите DHT.
За релизами в HD качестве обращайтесь в личку, либо отписывайтесь в теме.
[Торрент-статистика]
[Профиль]  [ЛС] 
Показать сообщения:    
Ответить на тему

Текущее время: Сегодня 01:48

Часовой пояс: GMT + 4



Вы не можете начинать темы
Вы не можете отвечать на сообщения
Вы не можете редактировать свои сообщения
Вы не можете удалять свои сообщения
Вы не можете голосовать в опросах
Вы не можете прикреплять файлы к сообщениям
Вы не можете скачивать файлы