Овечка Долли была злая и рано умерла (Алексей Пиманов) [2015, фантастика, комедия, приключения, WEB-DL 720p]

Ответить на тему
 
Автор
Сообщение

TiZAr ®

Пол:

Стаж: 3 года 3 месяца

Сообщений: 836

Репутация: 1157 [+] [-]

Откуда: Россия

Пост 11-Сен-2015 23:05

[Цитировать] 

Информация о фильме
Название: Овечка Долли была злая и рано умерла
Год выхода: 2015
Жанр: фантастика, комедия, приключения
Режиссер: Алексей Пиманов
В ролях: Данила Шевченко, Юлия Савичева, Виктор Сухоруков, Роман Полянский, Виктория Маслова, Борис Щербаков, Анна Шерлинг, Юлия Пожидаева, Антон Феоктистов, Ирина Ильинская
О фильме:
Главный герой — современный молодой человек Никита, студент МИФИ, в результате научного эксперимента попадает в прошлое, где ему предстоит встретить не только своих молодых родителей, но найти новых друзей и обрести настоящую любовь в лице студентки Маши. Эта встреча заставляет его по-другому посмотреть на свою жизнь. Однако Никита вдруг понимает, что начинает стремительно стареть и спастись он может только если вернется обратно — в свое время. Но сделать это оказалось не так просто….

Страна: Россия
Студия: Пиманов Фильм
Продолжительность: 01:56:37
Перевод: Не требуется
Файл
Качество: WEB-DL (720p)
Видео: MPEG-4 AVC, 3812 Кбит/с, 960х540@1280x540
Аудио: AC3, 2 ch, 192 Кбит/с
Язык: Русский

M/I

General
Unique ID : 214609772075531399019010244152523804501 (0xA17456B119B7B753BAFE6F0BF300CF55)
Complete name : F:FILMSОвечка Долли была злая и рано умерла.2015.O.WEB-DL.720p.mkv
Format : Matroska
Format version : Version 4 / Version 2
File size : 3.33 GiB
Duration : 1h 56mn
Overall bit rate : 4 085 Kbps
Encoded date : UTC 2015-09-11 05:26:55
Writing application : mkvmerge v6.5.0 ('Isn't she lovely') built on Oct 20 2013 12:50:05
Writing library : libebml v1.3.0 + libmatroska v1.4.1
Video
ID : 1
Format : AVC
Format/Info : Advanced Video Codec
Format profile : Main@L3.1
Format settings, CABAC : No
Format settings, ReFrames : 2 frames
Codec ID : V_MPEG4/ISO/AVC
Duration : 1h 56mn
Bit rate : 3 812 Kbps
Width : 960 pixels
Height : 540 pixels
Display aspect ratio : 2.40:1
Frame rate mode : Constant
Frame rate : 25.000 fps
Color space : YUV
Chroma subsampling : 4:2:0
Bit depth : 8 bits
Scan type : Progressive
Bits/(Pixel*Frame) : 0.294
Stream size : 3.11 GiB (93%)
Language : Russian
Default : Yes
Forced : No
Color range : Limited
Color primaries : BT.709
Transfer characteristics : BT.709
Matrix coefficients : BT.709
Audio
ID : 2
Format : AC-3
Format/Info : Audio Coding 3
Mode extension : CM (complete main)
Format settings, Endianness : Big
Codec ID : A_AC3
Duration : 1h 56mn
Bit rate mode : Constant
Bit rate : 192 Kbps
Channel(s) : 2 channels
Channel positions : Front: L R
Sampling rate : 48.0 KHz
Compression mode : Lossy
Stream size : 160 MiB (5%)
Language : Russian
Default : Yes
Forced : No
Menu
00:00:00.000 : en:Глава 1
00:05:36.000 : en:Глава 2
00:10:46.000 : en:Глава 3
00:16:09.000 : en:Глава 4
00:21:20.000 : en:Глава 5
00:27:03.000 : en:Глава 6
00:32:21.000 : en:Глава 7
00:37:58.000 : en:Глава 8
00:43:23.000 : en:Глава 9
00:48:16.000 : en:Глава 10
00:54:01.000 : en:Глава 11
00:59:39.000 : en:Глава 12
01:05:34.000 : en:Глава 13
01:11:49.000 : en:Глава 14
01:17:17.000 : en:Глава 15
01:21:49.000 : en:Глава 16
01:26:52.000 : en:Глава 17
01:32:07.000 : en:Глава 18
01:38:04.000 : en:Глава 19
01:43:57.000 : en:Глава 20
01:49:41.000 : en:Глава 21

Скриншоты


_________________
Не стоит обращать внимания на отсутствие сидов на моих раздачах. Все мои релизы мультитрекерные - нет сидов, включите DHT.
За релизами в HD качестве обращайтесь в личку, либо отписывайтесь в теме.
[Торрент-статистика]
[Профиль]  [ЛС] 
Показать сообщения:    
Ответить на тему

Текущее время: Сегодня 14:48

Часовой пояс: GMT + 4



Вы не можете начинать темы
Вы не можете отвечать на сообщения
Вы не можете редактировать свои сообщения
Вы не можете удалять свои сообщения
Вы не можете голосовать в опросах
Вы не можете прикреплять файлы к сообщениям
Вы не можете скачивать файлы