Матч (Андрей Малюков) [2011 г., драма, спорт, BDRip 720p]

Ответить на тему
 
Автор
Сообщение

alien.09 ®

Пол:

Стаж: 3 года 8 месяцев

Сообщений: 749

Репутация: 553 [+] [-]

Пост 12-Май-2013 17:45

[Цитировать] 

--Матч--Год выпуска: 2011
Страна: Россия, Украина
Жанр: драма, спорт
Продолжительность: 01:57:38-Режиссер: Андрей Малюков-В ролях: Сергей Безруков, Елизавета Боярская, Эдуард Безродный, Екатерина Климова, Дирк Мартенс, Александр Крыжановский, Александр Кобзарь, Сергей Романович, Игорь Гнездилов, Никита Тезин-Описание: 1942 год. Николай Раневич, вратарь и звезда киевского «Динамо», теряет самое дорогое — свободу, любимую девушку Анну и возможность играть в футбол. Анна спасает Николая из плена, но теперь они не могут быть вместе…
Немцы устраивают чемпионат по футболу между местными командами и сборной Вермахта. Раневич собирает друзей и вновь выходит на поле играть за свою честь, за любовь, за Родину!-- --Тип релиза: BDRip 720p
Контейнер: MKV
Видео кодек: H264 (AVC)
Аудио кодек: DTS
Видео: AVC at 4415 Кбит/сек, 1280 x 692 (1.850) at 25.000 fps
Аудио: DTS at 1510 Кбит/сек, 6 каналов, 48,0 КГц-

MI

Общее
Уникальный идентификатор : 211105015017657133730316918342086523638 (0x9ED158D3E579BBFAB307038EE8277AF6)
Полное имя : C:\Users\Gary\Внеха\Матч 720р.mkv
Формат : Matroska
Версия формата : Version 2
Размер файла : 4,97 Гбайт
Продолжительность : 1 ч. 57 м.
Общий поток : 6045 Кбит/сек
Название фильма : IRONCLUB
Дата кодирования : UTC 2013-05-12 13:10:13
Программа кодирования : mkvmerge v5.3.0 ('I could have danced') built on Mar 4 2012 19:18:32
Библиотека кодирования : libebml v1.2.3 + libmatroska v1.3.0
Видео
Идентификатор : 1
Формат : AVC
Формат/Информация : Advanced Video Codec
Профиль формата : High@L4.1
Параметр CABAC формата : Да
Параметр ReFrames формата : 9 кадров
Режим смешивания : Header stripping
Идентификатор кодека : V_MPEG4/ISO/AVC
Продолжительность : 1 ч. 57 м.
Битрейт : 4415 Кбит/сек
Ширина : 1280 пикселей
Высота : 692 пикселя
Соотношение сторон : 1,85:1
Режим частоты кадров : Постоянный
Частота кадров : 25,000 кадров/сек
Цветовое пространство : YUV
Субдискретизация насыщенности : 4:2:0
Битовая глубина : 8 бит
Тип развёртки : Прогрессивная
Бит/(Пиксели*Кадры) : 0.199
Размер потока : 3,63 Гбайт (73%)
Заголовок : Матч (2012)
Библиотека кодирования : x264 core 125 r2200 999b753
Настройки программы : cabac=1 / ref=9 / deblock=1:-3:-3 / analyse=0x3:0x113 / me=umh / subme=11 / psy=1 / psy_rd=1.00:0.00 / mixed_ref=1 / me_range=32 / chroma_me=1 / trellis=2 / 8x8dct=1 / cqm=0 / deadzone=21,11 / fast_pskip=0 / chroma_qp_offset=-2 / threads=12 / lookahead_threads=2 / sliced_threads=0 / nr=0 / decimate=1 / interlaced=0 / bluray_compat=0 / constrained_intra=0 / bframes=7 / b_pyramid=2 / b_adapt=2 / b_bias=0 / direct=3 / weightb=1 / open_gop=0 / weightp=2 / keyint=250 / keyint_min=25 / scenecut=40 / intra_refresh=0 / rc_lookahead=40 / rc=crf / mbtree=0 / crf=16.7 / qcomp=0.60 / qpmin=10 / qpmax=69 / qpstep=4 / vbv_maxrate=50000 / vbv_bufsize=62500 / crf_max=0.0 / nal_hrd=none / ip_ratio=1.40 / pb_ratio=1.30 / aq=1:1.00
Язык : Russian
Default : Да
Forced : Да
Коэффициенты матрицы : BT.709
Аудио
Идентификатор : 2
Формат : DTS
Формат/Информация : Digital Theater Systems
Режим смешивания : Header stripping
Идентификатор кодека : A_DTS
Продолжительность : 1 ч. 57 м.
Вид битрейта : Постоянный
Битрейт : 1510 Кбит/сек
Каналы : 6 каналов
Расположение каналов : Front: L C R, Side: L R, LFE
Частота : 48,0 КГц
Битовая глубина : 16 бит
Метод сжатия : С потерями
Размер потока : 1,24 Гбайт (25%)
Заголовок : DTS 5.1 @ 1536 kbps
Язык : Russian
Default : Да
Forced : Да
Меню
00:00:00.000 : ru:00:00:00.000
00:08:50.480 : ru:00:08:50.480
00:13:58.440 : ru:00:13:58.440
00:17:52.760 : ru:00:17:52.760
00:22:04.359 : ru:00:22:04.359
00:30:00.520 : ru:00:30:00.520
00:39:32.680 : ru:00:39:32.680
00:46:36.640 : ru:00:46:36.640
00:52:03.320 : ru:00:52:03.320
00:58:34.640 : ru:00:58:34.640
01:04:37.600 : ru:01:04:37.600
01:10:23.840 : ru:01:10:23.840
01:16:03.880 : ru:01:16:03.880
01:25:24.640 : ru:01:25:24.640
01:32:36.760 : ru:01:32:36.760
01:38:47.479 : ru:01:38:47.479

Скриншоты


_________________
Правообладатели, убейтесь об эту надпись.
[Торрент-статистика]
[Профиль]  [ЛС] 

alien.09 ®

Пол:

Стаж: 3 года 8 месяцев

Сообщений: 749

Репутация: 553 [+] [-]

Пост 21-Июл-2013 04:32 (спустя 2 месяца 8 дней)

[Цитировать] 

тф перезалит

_________________
Правообладатели, убейтесь об эту надпись.
[Торрент-статистика]
[Профиль]  [ЛС] 
Показать сообщения:    
Ответить на тему

Текущее время: Сегодня 22:06

Часовой пояс: GMT + 4



Вы не можете начинать темы
Вы не можете отвечать на сообщения
Вы не можете редактировать свои сообщения
Вы не можете удалять свои сообщения
Вы не можете голосовать в опросах
Вы не можете прикреплять файлы к сообщениям
Вы не можете скачивать файлы