Илья Муромец (Александр Птушко) [1956 г., Сказка, HDTVRip 720p]

Ответить на тему
 
Автор
Сообщение

renta23 ®

Пол:

Стаж: 2 года 3 месяца

Сообщений: 44

Репутация: 38 [+] [-]

Откуда: Брянск

Пост 16-Окт-2014 14:40

[Цитировать] 

Илья Муромец---Год выпуска: 1956
Жанр: Сказка
Продолжительность: 01:26:47---Режиссер: Александр Птушко
В ролях: Борис Андреев, Андрей Абрикосов, Наталья Медведева, Нинель Мышкова, Александр Шворин, Сергей Мартинсон, Георгий Дёмин, Сергей Столяров, Михаил Пуговкин, Владимир Соловьёв, Ия Арепина, Владимир Тягушев, Николай Гладков, Шукур Бурханов, Садыкбек Джаманов, Муратбек Рыскулов, Шамши Тюменбаев, Сергей Троицкий---Описание: Защитник Руси, богатырь Илья Муромец по навету бояр попадает в княжеское подземелье. Но когда на родную землю вновь приходит беда, вынужден князь идти на поклон Муромцу и друзьям его — Алеше Поповичу и Добрыне Никитичу…
Первый советский широкоэкранный фильм.
В фильме участвовали 106000 солдат-статистов и 11000 лошадей.
Фильм имел успех в американском прокате. Его перемонтировал Роджер Корман. Шел фильм под названием «Sword and the dragon» (Меч и дракон).-- -Тип релиза: HDTVRip
Контейнер: MKV
Видео кодек: H264
Аудио кодек: AC3
Видео: MPEG4 Video (H264), 1280x576, 29.97fps, 5000 Kbps
Аудио: Dolby AC3, 44100 Hz, 2ch, 384 kbps
Субтитры: Русские
--Сэмпл

MediaInfo:

General
Unique ID : 180430364109075572086975510725396217685 (0x87BD9FC5C45EF382AB390AF9B1EB3F55)
Complete name : F:Torrent 21956.Илья Муромец.renta23.mkv
Format : Matroska
Format version : Version 4 / Version 2
File size : 3.27 GiB
Duration : 1h 26mn
Overall bit rate : 5 388 Kbps
Encoded date : UTC 2014-10-11 18:43:32
Writing application : mkvmerge v7.1.0 ('Good Love') 32bit built on Jul 27 2014 12:59:18
Writing library : libebml v1.3.0 + libmatroska v1.4.1
DURATION : 01:24:03.199000000
NUMBER_OF_FRAMES : 567
NUMBER_OF_BYTES : 860426
_STATISTICS_WRITING_APP : mkvmerge v7.1.0 ('Good Love') 32bit built on Jul 27 2014 12:59:18
_STATISTICS_WRITING_DATE_UTC : 2014-10-11 18:43:32
_STATISTICS_TAGS : BPS DURATION NUMBER_OF_FRAMES NUMBER_OF_BYTES
Video
ID : 1
Format : AVC
Format/Info : Advanced Video Codec
Format profile : High@L4.1
Format settings, CABAC : Yes
Format settings, ReFrames : 7 frames
Codec ID : V_MPEG4/ISO/AVC
Duration : 1h 26mn
Bit rate : 5 000 Kbps
Width : 1 280 pixels
Height : 576 pixels
Display aspect ratio : 2.222
Frame rate mode : Constant
Frame rate : 29.970 fps
Color space : YUV
Chroma subsampling : 4:2:0
Bit depth : 8 bits
Scan type : Progressive
Bits/(Pixel*Frame) : 0.226
Stream size : 2.97 GiB (91%)
Title : renta23
Writing library : x264 core 125 r2208 d9d2288
Encoding settings : cabac=1 / ref=8 / deblock=1:-1:-1 / analyse=0x3:0x133 / me=umh / subme=11 / psy=1 / psy_rd=1.15:0.25 / mixed_ref=1 / me_range=24 / chroma_me=1 / trellis=2 / 8x8dct=1 / cqm=0 / deadzone=21,11 / fast_pskip=0 / chroma_qp_offset=-4 / threads=12 / lookahead_threads=2 / sliced_threads=0 / nr=0 / decimate=1 / interlaced=0 / bluray_compat=0 / constrained_intra=0 / bframes=6 / b_pyramid=1 / b_adapt=2 / b_bias=0 / direct=3 / weightb=1 / open_gop=0 / weightp=2 / keyint=250 / keyint_min=25 / scenecut=40 / intra_refresh=0 / rc_lookahead=50 / rc=2pass / mbtree=1 / bitrate=5000 / ratetol=1.0 / qcomp=0.60 / qpmin=0 / qpmax=69 / qpstep=4 / cplxblur=20.0 / qblur=0.5 / ip_ratio=1.40 / aq=2:1.00
Language : Russian
Default : Yes
Forced : No
Audio
ID : 2
Format : AC-3
Format/Info : Audio Coding 3
Mode extension : CM (complete main)
Format settings, Endianness : Big
Codec ID : A_AC3
Duration : 1h 26mn
Bit rate mode : Constant
Bit rate : 384 Kbps
Channel(s) : 2 channels
Channel positions : Front: L R
Sampling rate : 44.1 KHz
Bit depth : 16 bits
Compression mode : Lossy
Stream size : 238 MiB (7%)
Language : Russian
Default : Yes
Forced : No
Text
ID : 3
Format : VobSub
Muxing mode : zlib
Codec ID : S_VOBSUB
Codec ID/Info : The same subtitle format used on DVDs
Language : Russian
Default : Yes
Forced : No

Скриншоты:

-
[Торрент-статистика]
[Профиль]  [ЛС] 
Показать сообщения:    
Ответить на тему

Текущее время: Сегодня 12:14

Часовой пояс: GMT + 4



Вы не можете начинать темы
Вы не можете отвечать на сообщения
Вы не можете редактировать свои сообщения
Вы не можете удалять свои сообщения
Вы не можете голосовать в опросах
Вы не можете прикреплять файлы к сообщениям
Вы не можете скачивать файлы