Авантюристы (Константин Буслов) [2014 г., приключения, мелодрама, WEB-DL 720p]

Ответить на тему
 
Автор
Сообщение

ArtZak ®

Пол:

Стаж: 5 лет 1 месяц

Сообщений: 3008

Репутация: 1363 [+] [-]

Откуда: Россия

Пост 10-Авг-2014 00:00

[Цитировать] 

Авантюристы- Год выпуска: 2014
Страна: Россия
Жанр: приключения, мелодрама
Продолжительность: 01:31:01
Оглавление: нет
Режиссер: Константин Буслов- -В ролях:
Константин Хабенский, Светлана Ходченкова, Денис Шведов и др.
Описание:
Катя и Андрей, успешный молодой банкир, прилетают на Мальту на отдых. В дайвинг-центре они случайно встречают Макса — профессионального дайвера, тайком занимающегося черной археологией, и, по совместительству, бывшего возлюбленного Кати.
Во время одного из погружений Катя находит фрагмент спасательного жилета с номером немецкой подлодки времен Второй мировой. Девушка выясняет, что в 1942 году у мальтийского ордена рыцарей-госпитальеров была похищена коллекция уникальных древнеегипетских реликвий, которая должна была быть доставлена в Германию именно на подлодке. Однако ценный груз туда в итоге не прибыл.
Рассудив, что подводная лодка с сокровищами, скорее всего, лежит на дне у берегов Мальты, троица начинает ее поиски, ввязываясь в череду опасных авантюр, в том числе и подводных. А отношения между искателями приключений все больше напоминают любовный треугольник…
Тип релиза: WEB-DL 720p
Контейнер: MKV
Видео кодек: AVC
Аудио кодек: AC-3
Видео: AVC, 1280x544 (2.35:1), 25.000 fps, 2 500 Kbps (0.144 bit/pixel)
Аудио: AC-3, 48.0 KHz, 2 ch, 192 Kbps, CBR

Скриншоты

MI

Код:
General
Unique ID                                : 215946712800341031726946517354055272614 (0xA275D2F56D46D63FA6174CB9E62D08A6)
Complete name                            : D:\downloads\Avontur1st0.2014.O.720p.MegaPeer.mkv
Format                                   : Matroska
Format version                           : Version 2
File size                                : 1.71 GiB
Duration                                 : 1h 31mn
Overall bit rate                         : 2 688 Kbps
Encoded date                             : UTC 2014-08-08 15:09:49
Writing application                      : mkvmerge v6.1.0 ('Old Devil') built on Mar  4 2013 09:10:42
Writing library                          : libebml v1.3.0 + libmatroska v1.4.0
Video
ID                                       : 1
Format                                   : AVC
Format/Info                              : Advanced Video Codec
Format profile                           : High@L4.0
Format settings, CABAC                   : Yes
Format settings, ReFrames                : 3 frames
Codec ID                                 : V_MPEG4/ISO/AVC
Duration                                 : 1h 31mn
Bit rate                                 : 2 500 Kbps
Width                                    : 1 280 pixels
Height                                   : 544 pixels
Display aspect ratio                     : 2.35:1
Frame rate mode                          : Constant
Frame rate                               : 25.000 fps
Color space                              : YUV
Chroma subsampling                       : 4:2:0
Bit depth                                : 8 bits
Scan type                                : Progressive
Bits/(Pixel*Frame)                       : 0.144
Stream size                              : 1.55 GiB (91%)
Writing library                          : x264 core 133
Encoding settings                        : cabac=1 / ref=4 / deblock=1:0:0 / analyse=0x3:0x133 / me=umh / subme=9 / psy=1 / psy_rd=1.00:0.00 / mixed_ref=1 / me_range=24 / chroma_me=1 / trellis=2 / 8x8dct=1 / cqm=0 / deadzone=21,11 / fast_pskip=1 / chroma_qp_offset=-2 / threads=2 / lookahead_threads=1 / sliced_threads=0 / nr=0 / decimate=1 / interlaced=0 / bluray_compat=0 / constrained_intra=0 / bframes=9 / b_pyramid=1 / b_adapt=2 / b_bias=0 / direct=3 / weightb=1 / open_gop=0 / weightp=2 / keyint=100 / keyint_min=10 / scenecut=40 / intra_refresh=0 / rc_lookahead=100 / rc=2pass / mbtree=1 / bitrate=2500 / ratetol=1.0 / qcomp=0.60 / qpmin=0 / qpmax=69 / qpstep=4 / cplxblur=20.0 / qblur=0.5 / vbv_maxrate=3250 / vbv_bufsize=3750 / nal_hrd=none / ip_ratio=1.40 / aq=1:1.00
Language                                 : Russian
Default                                  : Yes
Forced                                   : No
Audio
ID                                       : 2
Format                                   : AC-3
Format/Info                              : Audio Coding 3
Mode extension                           : CM (complete main)
Format settings, Endianness              : Big
Codec ID                                 : A_AC3
Duration                                 : 1h 31mn
Bit rate mode                            : Constant
Bit rate                                 : 192 Kbps
Channel(s)                               : 2 channels
Channel positions                        : Front: L R
Sampling rate                            : 48.0 KHz
Bit depth                                : 16 bits
Compression mode                         : Lossy
Delay relative to video                  : -43ms
Stream size                              : 125 MiB (7%)
Default                                  : Yes
Forced                                   : No
[Торрент-статистика]
[Профиль]  [ЛС] 
Показать сообщения:    
Ответить на тему

Текущее время: Сегодня 22:08

Часовой пояс: GMT + 4



Вы не можете начинать темы
Вы не можете отвечать на сообщения
Вы не можете редактировать свои сообщения
Вы не можете удалять свои сообщения
Вы не можете голосовать в опросах
Вы не можете прикреплять файлы к сообщениям
Вы не можете скачивать файлы