Путь нечестивых / Way of the Wicked (Кевин Каррауэй / Kevin Carraway) [2014 г., Триллер, драма, BDRip 720p]

Ответить на тему
 
Автор
Сообщение

awk05 ®

Пол:

Стаж: 4 года 5 месяцев

Сообщений: 1352

Репутация: 275 [+] [-]

Откуда: Западная Украина Ривне

Пост 27-Июл-2014 17:12

[Цитировать] 

--Путь нечестивых / Way of the Wicked
«Evil never dies......»--
Год выпуска: 2014
Жанр: Триллер, драма
Выпущено: США, Канада, Matt Kelly Films, Odyssey Media
Продолжительность: 01:32:07
Перевод: Любительский двухголосый + Original
Субтитры: Английские--Режиссер: Кевин Каррауэй / Kevin Carraway --
В ролях: Винни Джонс (John Elliott), Кристиан Слэйтер (Henry), Эмили Теннант (Heather), Джейк Крокер (Robbie), Арен Бучольц (Greg), Мэттью Роберт Келли (Detective Fleming), Бриттни Уилсон (Cindy), Джедидайя Гудакр (Matt), Джиллиан Фергей (Elizabeth), Анна Галвин (Laura), Райан Грэнтхем (Young Robbie), Джейсон Буркарт (Janitor), Эллисон Уоррен (Teacher), и др.--О фильме: После жестоких и беспощадных убийств, которые случились в небольшом городке, изолированном от цивилизации, отец Генри рассказывает местному следователю свою версию случившегося. По его мнению, ко всем преступлениям имеет отношение один подросток, который появился в их городе совсем недавно. Отец уверен, что парень обладает сверхъестественными силами, его душа подчиняется властям тьмы.--Качество видео: BDRip 720p
Формат видео: MKV
Видео кодек: AVC (High@L4.1)
Аудио кодек: AC-3
Видео: AVC, 1280x720 (16:9), 23.976 fps, 6 200 Kbps (0.281 bit/pixel)
Аудио 1: AC-3, 48.0 KHz, 2 ch, 192 Kbps, CBR, 16 бит [RUS]
Аудио 2: AC-3, 48.0 KHz, 6 ch, 640 Kbps, CBR, 16 бит [ENG] -- --

Кадры из фильма

Тех. данные (MI)

Общее
Уникальный идентификатор : 253607296663658507154825376452649313679 (0xBECAFD19DE3274A984FA6159FD2A658F)
Полное имя : E:\тест\Way.of.the.Wicked.2014.L2.BDRip.720p_.mkv
Формат : Matroska
Версия формата : Version 4 / Version 2
Размер файла : 4,52 Гбайт
Продолжительность : 1 ч. 32 м.
Общий поток : 7032 Кбит/сек
Дата кодирования : UTC 2014-07-15 14:13:01
Программа кодирования : mkvmerge v6.8.0 ('Theme for Great Cities') 32bit built on Mar 2 2014 21:27:07
Библиотека кодирования : libebml v1.3.0 + libmatroska v1.4.1
Видео
Идентификатор : 1
Формат : AVC
Формат/Информация : Advanced Video Codec
Профиль формата : High@L4.1
Параметр CABAC формата : Да
Параметр ReFrames формата : 9 кадров
Идентификатор кодека : V_MPEG4/ISO/AVC
Продолжительность : 1 ч. 32 м.
Битрейт : 6200 Кбит/сек
Ширина : 1280 пикселей
Высота : 720 пикселей
Соотношение сторон : 16:9
Режим частоты кадров : Постоянный
Частота кадров : 23,976 кадра/сек
Цветовое пространство : YUV
Субдискретизация насыщенности : 4:2:0
Битовая глубина : 8 бит
Тип развёртки : Прогрессивная
Бит/(Пиксели*Кадры) : 0.281
Размер потока : 3,90 Гбайт (86%)
Заголовок : Way of the Wicked 2014
Библиотека кодирования : x264 core 133 r2334 a3ac64b
Настройки программы : cabac=1 / ref=9 / deblock=1:-3:-3 / analyse=0x3:0x113 / me=umh / subme=11 / psy=1 / psy_rd=1.05:0.00 / mixed_ref=1 / me_range=24 / chroma_me=1 / trellis=2 / 8x8dct=1 / cqm=0 / deadzone=21,11 / fast_pskip=0 / chroma_qp_offset=-2 / threads=3 / lookahead_threads=1 / sliced_threads=0 / nr=0 / decimate=0 / interlaced=0 / bluray_compat=0 / constrained_intra=0 / bframes=12 / b_pyramid=2 / b_adapt=2 / b_bias=0 / direct=3 / weightb=1 / open_gop=0 / weightp=2 / keyint=250 / keyint_min=23 / scenecut=40 / intra_refresh=0 / rc=2pass / mbtree=0 / bitrate=6200 / ratetol=1.0 / qcomp=0.60 / qpmin=0 / qpmax=69 / qpstep=4 / cplxblur=20.0 / qblur=0.5 / ip_ratio=1.40 / pb_ratio=1.30 / aq=1:0.60
Язык : English
Default : Да
Forced : Да
Аудио #1
Идентификатор : 2
Формат : AC-3
Формат/Информация : Audio Coding 3
Расширение режима : CM (complete main)
Параметр Endianness формата : Big
Идентификатор кодека : A_AC3
Продолжительность : 1 ч. 32 м.
Вид битрейта : Постоянный
Битрейт : 192 Кбит/сек
Каналы : 2 канала
Расположение каналов : Front: L R
Частота : 48,0 КГц
Битовая глубина : 16 бит
Метод сжатия : С потерями
Размер потока : 127 Мбайт (3%)
Язык : Russian
Default : Да
Forced : Да
Аудио #2
Идентификатор : 3
Формат : AC-3
Формат/Информация : Audio Coding 3
Расширение режима : CM (complete main)
Параметр Endianness формата : Big
Идентификатор кодека : A_AC3
Продолжительность : 1 ч. 32 м.
Вид битрейта : Постоянный
Битрейт : 640 Кбит/сек
Каналы : 6 каналов
Расположение каналов : Front: L C R, Side: L R, LFE
Частота : 48,0 КГц
Битовая глубина : 16 бит
Метод сжатия : С потерями
Размер потока : 422 Мбайт (9%)
Язык : English
Default : Нет
Forced : Нет
Текст
Идентификатор : 4
Формат : UTF-8
Идентификатор кодека : S_TEXT/UTF8
Идентификатор кодека/Информация : UTF-8 Plain Text
Язык : English
Default : Нет
Forced : Нет
Меню
00:00:00.000 : en:00:00:00.000
00:07:56.601 : en:00:07:56.601
00:17:19.413 : en:00:17:19.413
00:23:25.613 : en:00:23:25.613
00:32:20.814 : en:00:32:20.814
00:39:45.800 : en:00:39:45.800
00:48:18.312 : en:00:48:18.312
00:54:31.560 : en:00:54:31.560
01:03:43.820 : en:01:03:43.820
01:12:30.638 : en:01:12:30.638
01:19:51.328 : en:01:19:51.328
01:28:59.709 : en:01:28:59.709

_________________
[Торрент-статистика]
[Профиль]  [ЛС] 
Показать сообщения:    
Ответить на тему

Текущее время: Сегодня 01:49

Часовой пояс: GMT + 4



Вы не можете начинать темы
Вы не можете отвечать на сообщения
Вы не можете редактировать свои сообщения
Вы не можете удалять свои сообщения
Вы не можете голосовать в опросах
Вы не можете прикреплять файлы к сообщениям
Вы не можете скачивать файлы